<?xml version="1.0" standalone="no"?>
<!DOCTYPE svg PUBLIC "-//W3C//DTD SVG 1.1//EN" "http://www.w3.org/Graphics/SVG/1.1/DTD/svg11.dtd" >
<svg xmlns="http://www.w3.org/2000/svg" xmlns:xlink="http://www.w3.org/1999/xlink" version="1.1">
<metadata>
Created by FontForge 20190801 at Thu Jul 20 21:46:52 2017
 By Unknown
\(c\) 2017 Connary Fagen
</metadata>
<defs>
<font id="VanguardCF-DemiBold" horiz-adv-x="802" >
  <font-face 
    font-family="Vanguard CF"
    font-weight="600"
    font-stretch="normal"
    units-per-em="2048"
    panose-1="0 0 7 0 0 0 0 0 0 0"
    ascent="1638"
    descent="-410"
    x-height="1570"
    cap-height="1570"
    bbox="-294 -613 2471 1956"
    underline-thickness="0"
    underline-position="0"
    stemh="211"
    stemv="228"
    unicode-range="U+0020-25CA"
  />
<missing-glyph horiz-adv-x="913" 
d="M171 1570h578v-1826h-578v1826zM608 1388v59h-301v-59h118v-69h-120v-59h303v59h-120v69h120zM488 1084v128h-183v-190h303v62h-120zM365 1150h60v-66h-60v66zM608 913v60h-303v-60h120v-68h-120v-60h183v128h120zM608 681v183h-60v-122h-243v-61h303zM608 433v207h-183
v-102h63v42h60v-85h-183v145h-60v-207h303zM608 118v206h-303v-206h303zM365 265h183v-86h-183v86zM608 15v62h-303v-62h128l-128 -85v-60h303v60h-186l128 85h58z" />
    <glyph glyph-name=".notdef" horiz-adv-x="913" 
d="M171 1570h578v-1826h-578v1826zM608 1388v59h-301v-59h118v-69h-120v-59h303v59h-120v69h120zM488 1084v128h-183v-190h303v62h-120zM365 1150h60v-66h-60v66zM608 913v60h-303v-60h120v-68h-120v-60h183v128h120zM608 681v183h-60v-122h-243v-61h303zM608 433v207h-183
v-102h63v42h60v-85h-183v145h-60v-207h303zM608 118v206h-303v-206h303zM365 265h183v-86h-183v86zM608 15v62h-303v-62h128l-128 -85v-60h303v60h-186l128 85h58z" />
    <glyph glyph-name="glyph1" horiz-adv-x="0" 
 />
    <glyph glyph-name="glyph2" horiz-adv-x="682" 
 />
    <glyph glyph-name="space" unicode=" " horiz-adv-x="273" 
 />
    <glyph glyph-name="exclam" unicode="!" horiz-adv-x="387" 
d="M285 394h-184l-36 1176h258zM193 -24c-37 0 -69 13 -96 40s-41 59 -41 97c0 37 14 68 41 95c27 26 59 39 96 39c39 0 71 -13 98 -40s40 -58 40 -94c0 -37 -13 -69 -40 -96c-27 -28 -59 -41 -98 -41z" />
    <glyph glyph-name="quotedbl" unicode="&#x22;" horiz-adv-x="750" 
d="M307 831h-203l-19 739h239zM649 831h-204l-18 739h239z" />
    <glyph glyph-name="numbersign" unicode="#" horiz-adv-x="994" 
d="M944 1266v-225h-120v-512h120v-225h-120v-304h-239v304h-177v-304h-239v304h-118v225h118v512h-118v225h118v304h239v-304h177v304h239v-304h120zM408 529h177v512h-177v-512z" />
    <glyph glyph-name="dollar" unicode="$" horiz-adv-x="793" 
d="M314 1108v-79c0 -61 45 -111 108 -140c31 -15 65 -32 101 -52c72 -41 138 -80 179 -164c20 -43 30 -92 30 -147v-81c0 -169 -77 -266 -232 -291v-154h-198v154c-155 26 -232 128 -232 305v149h244v-147c0 -71 29 -106 87 -106c57 0 85 35 85 106v78
c0 61 -46 111 -107 140c-31 15 -64 32 -100 53c-73 41 -138 80 -178 164c-21 42 -31 91 -31 147v80c0 169 77 266 232 292v155h198v-155c153 -29 229 -131 229 -306v-146h-244v145c0 71 -28 106 -85 106c-57 -1 -86 -36 -86 -106z" />
    <glyph glyph-name="percent" unicode="%" horiz-adv-x="1793" 
d="M149 1517c55 50 134 75 237 75c102 0 181 -25 236 -75s83 -134 83 -252v-318c0 -118 -28 -202 -83 -253c-56 -51 -135 -76 -236 -76c-103 0 -182 25 -237 76c-56 51 -84 135 -84 253v318c0 118 28 202 84 252zM684 0h-239l664 1570h239zM471 937v336
c0 72 -28 108 -85 108s-86 -36 -86 -108v-336c0 -72 29 -108 86 -108s85 36 85 108zM1646 53c-55 -50 -134 -75 -236 -75c-103 0 -182 25 -237 75c-56 50 -84 134 -84 252v318c0 118 28 202 84 253c55 51 134 76 237 76c101 0 180 -25 236 -76c55 -51 83 -135 83 -253v-318
c0 -118 -28 -202 -83 -252zM1324 633v-336c0 -72 29 -108 86 -108s85 36 85 108v336c0 72 -28 108 -85 108s-86 -36 -86 -108z" />
    <glyph glyph-name="ampersand" unicode="&#x26;" 
d="M411 882l330 2v-587c0 -225 -120 -316 -333 -316c-225 0 -338 105 -338 316v239c0 115 45 195 135 241v11c-82 43 -123 118 -123 224v273c0 213 117 300 326 300c212 0 328 -85 328 -300v-223h-243v211c0 67 -28 101 -85 101s-85 -34 -85 -101v-287
c0 -69 29 -104 88 -104zM495 294v385h-84c-60 0 -90 -35 -90 -106v-279c0 -67 29 -101 87 -101s87 34 87 101z" />
    <glyph glyph-name="quotesingle" unicode="'" horiz-adv-x="409" 
d="M307 831h-203l-19 739h239z" />
    <glyph glyph-name="parenleft" unicode="(" horiz-adv-x="651" 
d="M604 32v-211c-128 0 -231 23 -303 78c-73 55 -126 110 -161 210c-17 50 -31 97 -41 141s-18 100 -23 167s-8 125 -9 176s-2 115 -2 192c0 68 1 125 2 171c1 45 3 99 7 160c3 61 8 111 15 152c7 40 17 84 30 133c13 48 28 88 47 119c36 63 92 132 161 168s164 61 277 61
v-211c-87 0 -151 -28 -193 -94c-21 -33 -38 -69 -51 -108s-23 -89 -29 -152c-7 -63 -11 -124 -13 -182c-3 -58 -4 -130 -4 -217s1 -159 4 -217c2 -58 6 -118 13 -181c6 -63 16 -114 29 -153c26 -77 66 -149 131 -179c32 -15 70 -23 113 -23z" />
    <glyph glyph-name="parenright" unicode=")" horiz-adv-x="651" 
d="M48 -179v211c87 0 152 29 194 95c21 33 38 68 51 107s22 90 29 153c6 63 10 123 13 181c2 58 3 130 3 217s-1 159 -3 217c-3 58 -7 119 -13 182c-7 63 -16 113 -29 152c-26 77 -67 150 -131 180c-33 15 -71 22 -114 22v211c173 -5 290 -45 370 -135
c55 -63 90 -117 116 -213c13 -49 22 -93 29 -133c7 -41 12 -91 16 -152c3 -61 6 -115 7 -160c1 -46 1 -103 1 -171c0 -77 0 -141 -1 -192s-5 -109 -10 -176s-13 -123 -23 -167s-24 -91 -41 -141c-35 -100 -88 -155 -160 -210c-73 -55 -176 -78 -304 -78z" />
    <glyph glyph-name="asterisk" unicode="*" horiz-adv-x="1041" 
d="M872 1413l80 -138l-303 -157l303 -157l-80 -138l-287 184l16 -341h-161l16 341l-287 -184l-80 138l304 157l-304 157l80 138l287 -184l-16 341h161l-16 -341z" />
    <glyph glyph-name="plus" unicode="+" horiz-adv-x="1017" 
d="M635 905h300v-239h-300v-301h-253v301h-300v239h300v300h253v-300z" />
    <glyph glyph-name="comma" unicode="," horiz-adv-x="416" 
d="M268 -331h-155c29 111 42 221 39 331h-87v212h287v-84c0 -200 -28 -353 -84 -459z" />
    <glyph glyph-name="hyphen" unicode="-" horiz-adv-x="573" 
d="M509 672h-444v226h444v-226z" />
    <glyph glyph-name="period" unicode="." horiz-adv-x="384" 
d="M191 -24c-37 0 -69 13 -96 40s-40 59 -40 97c0 37 13 68 40 95c27 26 59 39 96 39c39 0 71 -13 98 -40s40 -58 40 -94c0 -37 -13 -69 -40 -96c-27 -28 -59 -41 -98 -41z" />
    <glyph glyph-name="slash" unicode="/" horiz-adv-x="571" 
d="M311 0h-232l170 1570h244z" />
    <glyph glyph-name="zero" unicode="0" 
d="M401 1585c107 0 189 -24 248 -72c59 -49 88 -130 88 -243v-970c0 -114 -29 -195 -88 -243s-141 -72 -248 -72c-224 0 -336 105 -336 315v970c0 210 112 315 336 315zM486 302v966c0 71 -28 106 -85 106s-85 -35 -85 -106v-966c0 -71 28 -106 85 -106s85 35 85 106z" />
    <glyph glyph-name="one" unicode="1" horiz-adv-x="546" 
d="M230 1570h251v-1570h-251v1285c-40 -60 -100 -90 -179 -90v237c68 0 140 49 179 138z" />
    <glyph glyph-name="two" unicode="2" horiz-adv-x="807" 
d="M746 1271v-256c0 -113 -49 -215 -113 -276c-32 -31 -67 -62 -104 -94c-75 -65 -141 -111 -184 -188c-22 -39 -33 -80 -33 -124v-121h425v-212h-667v350c0 123 47 228 110 293c31 32 66 65 103 98c74 66 139 110 181 183c21 36 31 74 31 115v229c0 71 -28 106 -85 106
s-86 -35 -86 -106v-261h-251v264c0 225 120 314 337 314c107 0 189 -24 248 -72c59 -49 88 -129 88 -242z" />
    <glyph glyph-name="three" unicode="3" horiz-adv-x="807" 
d="M742 1271v-247c0 -119 -39 -186 -138 -234v-10c97 -48 138 -115 138 -234v-247c0 -225 -121 -314 -337 -314c-217 0 -335 89 -335 314v222h249v-219c0 -71 29 -106 86 -106s85 35 85 106v253c0 87 -42 130 -126 129h-67v202h67c84 0 126 43 126 129v253
c0 71 -28 106 -85 106s-86 -35 -86 -106v-218h-249v221c0 225 118 314 335 314c216 0 337 -89 337 -314z" />
    <glyph glyph-name="four" unicode="4" horiz-adv-x="904" 
d="M729 555h111v-212h-111v-343h-253v343h-425v212l256 1015h422v-1015zM457 1335l-181 -780h200v780h-19z" />
    <glyph glyph-name="five" unicode="5" 
d="M463 1053c81 0 147 -24 198 -73s76 -129 76 -238v-440c0 -113 -29 -193 -88 -241c-59 -49 -142 -73 -250 -73c-107 0 -189 24 -247 73c-58 48 -87 128 -87 241v200h249v-195c0 -72 29 -108 86 -107c57 0 85 36 85 107v423c0 72 -28 108 -85 108s-86 -36 -86 -108v-83
h-249v923h643v-211h-394v-367c33 41 83 61 149 61z" />
    <glyph glyph-name="six" unicode="6" horiz-adv-x="800" 
d="M401 -15c-107 0 -189 24 -248 73c-59 48 -88 128 -88 241v983c0 225 121 314 335 314s329 -89 329 -314v-219h-244v217c0 71 -28 106 -85 106s-86 -35 -86 -106l2 -381c35 42 86 63 153 64c76 0 140 -22 191 -67s76 -122 76 -230v-367c0 -225 -119 -314 -335 -314z
M401 196c57 0 85 35 85 106v341c0 71 -28 106 -85 106c-58 0 -87 -35 -87 -106v-341c0 -71 29 -106 87 -106z" />
    <glyph glyph-name="seven" unicode="7" horiz-adv-x="750" 
d="M51 1359v211h649v-211l-318 -1359h-247l326 1359h-410z" />
    <glyph glyph-name="eight" unicode="8" horiz-adv-x="807" 
d="M403 -15c-108 0 -191 24 -250 73c-59 48 -88 128 -88 241v266c0 114 44 194 133 241v10c-81 49 -121 124 -121 227v242c0 213 117 300 326 300c212 0 327 -85 327 -300v-242c0 -103 -41 -178 -122 -227v-10c90 -47 135 -127 134 -241v-266c0 -225 -120 -314 -339 -314z
M403 903c58 0 87 37 87 111v254c0 71 -29 106 -87 106c-57 0 -85 -35 -86 -106v-254c1 -74 29 -111 86 -111zM403 196c59 0 89 35 89 106v307c0 73 -30 109 -89 110c-58 0 -87 -37 -87 -110v-307c0 -71 29 -106 87 -106z" />
    <glyph glyph-name="nine" unicode="9" horiz-adv-x="800" 
d="M399 1585c107 0 190 -24 249 -72c59 -49 88 -129 88 -242v-983c0 -113 -29 -193 -87 -241c-59 -49 -141 -73 -248 -73c-213 0 -329 89 -329 314v219h244v-217c0 -71 28 -106 85 -106s85 35 85 106l-1 381c-35 -42 -87 -63 -154 -63c-76 0 -139 22 -190 67
s-76 121 -76 230v366c0 225 118 314 334 314zM399 1374c-57 0 -85 -35 -85 -106v-341c0 -71 28 -106 85 -106c58 0 87 35 87 106v341c0 71 -29 106 -87 106z" />
    <glyph glyph-name="colon" unicode=":" horiz-adv-x="384" 
d="M191 1058c-37 0 -69 13 -96 40s-40 59 -40 97c0 37 13 68 40 95c27 26 59 39 96 39c39 0 71 -13 98 -40s40 -58 40 -94c0 -37 -13 -69 -40 -96s-59 -41 -98 -41zM191 241c-37 0 -69 13 -96 40s-40 59 -40 96s13 68 40 95s59 40 96 40c39 0 71 -13 98 -40s40 -58 40 -95
s-13 -69 -40 -96s-59 -40 -98 -40z" />
    <glyph glyph-name="semicolon" unicode=";" horiz-adv-x="409" 
d="M217 1058c-37 0 -69 13 -96 40s-41 59 -41 97c0 37 13 68 40 95c27 26 59 39 97 39c39 0 71 -13 98 -40s40 -58 40 -94c0 -37 -13 -69 -40 -96s-59 -41 -98 -41zM258 -61h-156c29 111 42 221 40 331h-87v211h286v-83c0 -200 -28 -353 -83 -459z" />
    <glyph glyph-name="less" unicode="&#x3c;" horiz-adv-x="600" 
d="M526 507v-254l-451 394v276l451 395v-255l-289 -268v-20z" />
    <glyph glyph-name="equal" unicode="=" horiz-adv-x="960" 
d="M896 794h-831v239h831v-239zM896 399h-831v239h831v-239z" />
    <glyph glyph-name="greater" unicode="&#x3e;" horiz-adv-x="600" 
d="M526 647l-451 -394v254l289 268v20l-289 268v255l451 -395v-276z" />
    <glyph glyph-name="question" unicode="?" horiz-adv-x="803" 
d="M321 1026h-251v244c0 211 112 316 336 315c107 0 189 -24 248 -72c59 -49 88 -130 88 -243v-210c0 -136 -36 -231 -80 -278c-23 -24 -45 -46 -68 -66c-45 -40 -82 -94 -82 -175v-147h-246v174c0 123 35 209 80 251c22 21 44 40 66 59c44 37 80 95 80 182v208
c0 71 -28 106 -85 106s-86 -35 -86 -106v-242zM387 -24c-37 0 -69 13 -96 40s-40 59 -40 97c0 37 13 68 40 95c27 26 59 39 96 39c39 0 72 -13 99 -40s40 -58 40 -94c0 -37 -13 -69 -40 -96c-27 -28 -60 -41 -99 -41z" />
    <glyph glyph-name="at" unicode="@" horiz-adv-x="957" 
d="M452 1585h80c248 0 361 -116 361 -380v-736c0 -135 -69 -187 -198 -187h-110c-128 0 -182 51 -182 187v306c0 136 55 188 182 188h110v242c0 122 -54 183 -163 183h-80c-108 0 -162 -61 -162 -183v-778c0 -167 67 -244 234 -244h97v-198h-138c-283 0 -418 121 -418 394
v826c0 254 129 381 387 380zM628 459h19c32 0 48 18 48 55v273h-65c-33 0 -49 -19 -50 -57v-216c0 -37 16 -55 48 -55z" />
    <glyph glyph-name="A" unicode="A" horiz-adv-x="863" 
d="M819 0h-240l-29 295h-236l-29 -295h-241l169 1570h437zM416 1343l-81 -838h194l-82 838h-31z" />
    <glyph glyph-name="B" unicode="B" 
d="M614 816v-14c82 -39 123 -116 123 -232v-254c0 -117 -19 -199 -56 -246s-114 -70 -229 -70h-387v1570h384c111 0 186 -23 223 -70s55 -129 55 -246v-223c0 -112 -28 -176 -113 -215zM389 1359h-73v-475h71c73 0 96 27 96 111v258c0 81 -21 106 -94 106zM486 319v289
c0 84 -24 109 -97 109h-73v-505h75c73 0 95 26 95 107z" />
    <glyph glyph-name="C" unicode="C" 
d="M486 546h251v-249c0 -211 -112 -316 -336 -316s-336 105 -336 316v973c0 211 112 316 336 315c107 0 189 -24 248 -72c59 -49 88 -130 88 -243v-244h-251v242c0 71 -28 106 -85 106s-85 -35 -85 -106v-969c0 -71 28 -106 85 -106s85 35 85 106v247z" />
    <glyph glyph-name="D" unicode="D" 
d="M65 1570h384c116 0 193 -23 231 -70s57 -129 57 -246v-938c0 -117 -19 -199 -57 -246s-115 -70 -231 -70h-384v1570zM486 317v936c0 81 -23 106 -95 106h-75v-1147h75c73 0 95 24 95 105z" />
    <glyph glyph-name="E" unicode="E" horiz-adv-x="621" 
d="M556 1570v-211h-240v-468h235v-208h-235v-471h240v-212h-491v1570h491z" />
    <glyph glyph-name="F" unicode="F" horiz-adv-x="621" 
d="M556 1570v-211h-239v-478h239v-209h-239v-672h-252v1570h491z" />
    <glyph glyph-name="G" unicode="G" 
d="M737 1270v-226h-249v224c0 71 -29 106 -87 106s-87 -35 -87 -106v-966c0 -71 31 -106 92 -106c63 0 94 35 94 106v377h-106v203h343v-582c0 -114 -29 -195 -88 -243s-141 -72 -248 -72c-224 0 -336 105 -336 315v970c0 211 112 316 336 315c107 0 189 -24 248 -72
c59 -49 88 -130 88 -243z" />
    <glyph glyph-name="H" unicode="H" horiz-adv-x="805" 
d="M490 877v693h251v-1570h-251v666h-174v-666h-251v1570h251v-693h174z" />
    <glyph glyph-name="I" unicode="I" horiz-adv-x="380" 
d="M316 0h-251v1570h251v-1570z" />
    <glyph glyph-name="J" unicode="J" horiz-adv-x="798" 
d="M61 526h251v-224c0 -71 29 -106 86 -106s85 35 85 106v1268h251v-1270c0 -114 -29 -195 -88 -243s-141 -72 -248 -72c-224 0 -336 105 -337 315v226z" />
    <glyph glyph-name="K" unicode="K" horiz-adv-x="841" 
d="M806 0h-239l-173 686l-80 -253v-433h-249v1570h249v-703h12l215 703h249l-211 -723z" />
    <glyph glyph-name="L" unicode="L" horiz-adv-x="643" 
d="M316 1570v-1358h266v-212h-517v1570h251z" />
    <glyph glyph-name="M" unicode="M" horiz-adv-x="1177" 
d="M297 0h-232v1570h386l129 -1237h17l130 1237h386v-1570h-232v1231h-21l-133 -1231h-276l-134 1231h-20v-1231z" />
    <glyph glyph-name="N" unicode="N" horiz-adv-x="909" 
d="M297 0h-232v1570h324l215 -1160h16l-7 187v973h232v-1570h-323l-215 1161h-17l7 -188v-973z" />
    <glyph glyph-name="O" unicode="O" 
d="M401 1585c107 0 189 -24 248 -72c59 -49 88 -130 88 -243v-970c0 -114 -29 -195 -88 -243s-141 -72 -248 -72c-224 0 -336 105 -336 315v970c0 210 112 315 336 315zM486 302v966c0 71 -28 106 -85 106s-85 -35 -85 -106v-966c0 -71 28 -106 85 -106s85 35 85 106z" />
    <glyph glyph-name="P" unicode="P" horiz-adv-x="803" 
d="M65 1570h384c114 0 190 -23 227 -70s56 -129 56 -246v-587c0 -117 -19 -199 -56 -245c-37 -47 -113 -70 -227 -70h-133v-352h-251v1570zM486 667v587c0 81 -23 106 -95 106h-75v-799h75c73 0 95 25 95 106z" />
    <glyph glyph-name="Q" unicode="Q" horiz-adv-x="846" 
d="M693 109l89 -92l-139 -142l-126 120c-35 -7 -74 -10 -116 -10c-224 0 -336 105 -336 315v970c0 211 112 316 336 315c107 0 189 -24 248 -72c59 -49 88 -130 88 -243v-970c0 -81 -15 -144 -44 -191zM316 1268v-966c0 -71 28 -106 85 -106s85 35 85 106v966
c0 71 -28 106 -85 106s-85 -35 -85 -106z" />
    <glyph glyph-name="R" unicode="R" horiz-adv-x="791" 
d="M628 539l133 -539h-227l-112 480h-106v-480h-251v1570h384c114 0 190 -23 227 -70s56 -129 56 -246v-474c0 -113 -35 -193 -104 -241zM316 1360v-688l100 2c52 4 70 33 70 106v474c0 81 -23 106 -95 106h-75z" />
    <glyph glyph-name="S" unicode="S" horiz-adv-x="793" 
d="M727 1268v-225h-241v223c0 71 -28 106 -85 106s-85 -35 -85 -106v-193c0 -73 46 -132 107 -166c31 -17 64 -38 101 -62s70 -48 101 -72c31 -25 56 -60 77 -105c20 -46 30 -99 30 -158v-208c0 -209 -110 -314 -331 -314c-212 0 -329 89 -329 314v225h240v-223
c0 -71 29 -106 87 -106c57 0 85 35 86 106v193c0 73 -47 133 -108 167c-31 17 -64 37 -99 61c-36 24 -69 48 -100 73s-57 60 -77 105c-21 45 -31 98 -31 157v208c0 209 110 314 329 314c212 0 328 -89 328 -314z" />
    <glyph glyph-name="T" unicode="T" horiz-adv-x="754" 
d="M51 1570h652v-211h-200v-1359h-252v1359h-200v211z" />
    <glyph glyph-name="U" unicode="U" 
d="M486 1570h251v-1270c0 -114 -29 -195 -88 -243s-141 -72 -248 -72c-224 0 -336 105 -336 315v1270h251v-1268c0 -71 28 -106 85 -106s85 35 85 106v1268z" />
    <glyph glyph-name="V" unicode="V" horiz-adv-x="863" 
d="M213 0l-169 1570h241l131 -1343h31l132 1343h240l-169 -1570h-437z" />
    <glyph glyph-name="W" unicode="W" horiz-adv-x="1365" 
d="M985 268l83 1302h244l-128 -1570h-394l-99 1300h-17l-99 -1300h-394l-128 1570h244l84 -1302h17l105 1302h359l106 -1302h17z" />
    <glyph glyph-name="X" unicode="X" horiz-adv-x="860" 
d="M618 797l189 -797h-247l-121 596h-16l-123 -596h-247l189 797l-182 773h247l116 -573h16l114 573h247z" />
    <glyph glyph-name="Y" unicode="Y" horiz-adv-x="853" 
d="M433 947l139 623h240l-262 -990v-580h-246v580l-263 990h241l138 -623h13z" />
    <glyph glyph-name="Z" unicode="Z" horiz-adv-x="738" 
d="M667 0h-606v212l372 1128v19h-354v211h599v-211l-383 -1129v-18h372v-212z" />
    <glyph glyph-name="bracketleft" unicode="[" horiz-adv-x="614" 
d="M550 -179h-485v1928h485v-211h-239v-1506h239v-211z" />
    <glyph glyph-name="backslash" unicode="\" horiz-adv-x="571" 
d="M323 1570l170 -1570h-232l-182 1570h244z" />
    <glyph glyph-name="bracketright" unicode="]" horiz-adv-x="614" 
d="M550 1749v-1928h-485v211h239v1506h-239v211h485z" />
    <glyph glyph-name="asciicircum" unicode="^" horiz-adv-x="1237" 
d="M340 1051h-255l395 451h276l394 -451h-254l-268 289h-20z" />
    <glyph glyph-name="underscore" unicode="_" horiz-adv-x="1030" 
d="M959 -225h-887v225h887v-225z" />
    <glyph glyph-name="grave" unicode="`" horiz-adv-x="310" 
d="M222 1428l89 -267h-222l-89 267h222z" />
    <glyph glyph-name="a" unicode="a" horiz-adv-x="863" 
d="M819 0h-240l-29 295h-236l-29 -295h-241l169 1570h437zM416 1343l-81 -838h194l-82 838h-31z" />
    <glyph glyph-name="b" unicode="b" 
d="M614 816v-14c82 -39 123 -116 123 -232v-254c0 -117 -19 -199 -56 -246s-114 -70 -229 -70h-387v1570h384c111 0 186 -23 223 -70s55 -129 55 -246v-223c0 -112 -28 -176 -113 -215zM389 1359h-73v-475h71c73 0 96 27 96 111v258c0 81 -21 106 -94 106zM486 319v289
c0 84 -24 109 -97 109h-73v-505h75c73 0 95 26 95 107z" />
    <glyph glyph-name="c" unicode="c" 
d="M486 546h251v-249c0 -211 -112 -316 -336 -316s-336 105 -336 316v973c0 211 112 316 336 315c107 0 189 -24 248 -72c59 -49 88 -130 88 -243v-244h-251v242c0 71 -28 106 -85 106s-85 -35 -85 -106v-969c0 -71 28 -106 85 -106s85 35 85 106v247z" />
    <glyph glyph-name="d" unicode="d" 
d="M65 1570h384c116 0 193 -23 231 -70s57 -129 57 -246v-938c0 -117 -19 -199 -57 -246s-115 -70 -231 -70h-384v1570zM486 317v936c0 81 -23 106 -95 106h-75v-1147h75c73 0 95 24 95 105z" />
    <glyph glyph-name="e" unicode="e" horiz-adv-x="621" 
d="M556 1570v-211h-240v-468h235v-208h-235v-471h240v-212h-491v1570h491z" />
    <glyph glyph-name="f" unicode="f" horiz-adv-x="621" 
d="M556 1570v-211h-239v-478h239v-209h-239v-672h-252v1570h491z" />
    <glyph glyph-name="g" unicode="g" 
d="M737 1270v-226h-249v224c0 71 -29 106 -87 106s-87 -35 -87 -106v-966c0 -71 31 -106 92 -106c63 0 94 35 94 106v377h-106v203h343v-582c0 -114 -29 -195 -88 -243s-141 -72 -248 -72c-224 0 -336 105 -336 315v970c0 211 112 316 336 315c107 0 189 -24 248 -72
c59 -49 88 -130 88 -243z" />
    <glyph glyph-name="h" unicode="h" horiz-adv-x="805" 
d="M490 877v693h251v-1570h-251v666h-174v-666h-251v1570h251v-693h174z" />
    <glyph glyph-name="i" unicode="i" horiz-adv-x="380" 
d="M316 0h-251v1570h251v-1570z" />
    <glyph glyph-name="j" unicode="j" horiz-adv-x="798" 
d="M61 526h251v-224c0 -71 29 -106 86 -106s85 35 85 106v1268h251v-1270c0 -114 -29 -195 -88 -243s-141 -72 -248 -72c-224 0 -336 105 -337 315v226z" />
    <glyph glyph-name="k" unicode="k" horiz-adv-x="841" 
d="M806 0h-239l-173 686l-80 -253v-433h-249v1570h249v-703h12l215 703h249l-211 -723z" />
    <glyph glyph-name="l" unicode="l" horiz-adv-x="643" 
d="M316 1570v-1358h266v-212h-517v1570h251z" />
    <glyph glyph-name="m" unicode="m" horiz-adv-x="1177" 
d="M297 0h-232v1570h386l129 -1237h17l130 1237h386v-1570h-232v1231h-21l-133 -1231h-276l-134 1231h-20v-1231z" />
    <glyph glyph-name="n" unicode="n" horiz-adv-x="909" 
d="M297 0h-232v1570h324l215 -1160h16l-7 187v973h232v-1570h-323l-215 1161h-17l7 -188v-973z" />
    <glyph glyph-name="o" unicode="o" 
d="M401 1585c107 0 189 -24 248 -72c59 -49 88 -130 88 -243v-970c0 -114 -29 -195 -88 -243s-141 -72 -248 -72c-224 0 -336 105 -336 315v970c0 210 112 315 336 315zM486 302v966c0 71 -28 106 -85 106s-85 -35 -85 -106v-966c0 -71 28 -106 85 -106s85 35 85 106z" />
    <glyph glyph-name="p" unicode="p" horiz-adv-x="803" 
d="M65 1570h384c114 0 190 -23 227 -70s56 -129 56 -246v-587c0 -117 -19 -199 -56 -245c-37 -47 -113 -70 -227 -70h-133v-352h-251v1570zM486 667v587c0 81 -23 106 -95 106h-75v-799h75c73 0 95 25 95 106z" />
    <glyph glyph-name="q" unicode="q" horiz-adv-x="846" 
d="M693 109l89 -92l-139 -142l-126 120c-35 -7 -74 -10 -116 -10c-224 0 -336 105 -336 315v970c0 211 112 316 336 315c107 0 189 -24 248 -72c59 -49 88 -130 88 -243v-970c0 -81 -15 -144 -44 -191zM316 1268v-966c0 -71 28 -106 85 -106s85 35 85 106v966
c0 71 -28 106 -85 106s-85 -35 -85 -106z" />
    <glyph glyph-name="r" unicode="r" horiz-adv-x="791" 
d="M628 539l133 -539h-227l-112 480h-106v-480h-251v1570h384c114 0 190 -23 227 -70s56 -129 56 -246v-474c0 -113 -35 -193 -104 -241zM316 1360v-688l100 2c52 4 70 33 70 106v474c0 81 -23 106 -95 106h-75z" />
    <glyph glyph-name="s" unicode="s" horiz-adv-x="793" 
d="M727 1268v-225h-241v223c0 71 -28 106 -85 106s-85 -35 -85 -106v-193c0 -73 46 -132 107 -166c31 -17 64 -38 101 -62s70 -48 101 -72c31 -25 56 -60 77 -105c20 -46 30 -99 30 -158v-208c0 -209 -110 -314 -331 -314c-212 0 -329 89 -329 314v225h240v-223
c0 -71 29 -106 87 -106c57 0 85 35 86 106v193c0 73 -47 133 -108 167c-31 17 -64 37 -99 61c-36 24 -69 48 -100 73s-57 60 -77 105c-21 45 -31 98 -31 157v208c0 209 110 314 329 314c212 0 328 -89 328 -314z" />
    <glyph glyph-name="t" unicode="t" horiz-adv-x="754" 
d="M51 1570h652v-211h-200v-1359h-252v1359h-200v211z" />
    <glyph glyph-name="u" unicode="u" 
d="M486 1570h251v-1270c0 -114 -29 -195 -88 -243s-141 -72 -248 -72c-224 0 -336 105 -336 315v1270h251v-1268c0 -71 28 -106 85 -106s85 35 85 106v1268z" />
    <glyph glyph-name="v" unicode="v" horiz-adv-x="863" 
d="M213 0l-169 1570h241l131 -1343h31l132 1343h240l-169 -1570h-437z" />
    <glyph glyph-name="w" unicode="w" horiz-adv-x="1365" 
d="M985 268l83 1302h244l-128 -1570h-394l-99 1300h-17l-99 -1300h-394l-128 1570h244l84 -1302h17l105 1302h359l106 -1302h17z" />
    <glyph glyph-name="x" unicode="x" horiz-adv-x="860" 
d="M618 797l189 -797h-247l-121 596h-16l-123 -596h-247l189 797l-182 773h247l116 -573h16l114 573h247z" />
    <glyph glyph-name="y" unicode="y" horiz-adv-x="853" 
d="M433 947l139 623h240l-262 -990v-580h-246v580l-263 990h241l138 -623h13z" />
    <glyph glyph-name="z" unicode="z" horiz-adv-x="738" 
d="M667 0h-606v212l372 1128v19h-354v211h599v-211l-383 -1129v-18h372v-212z" />
    <glyph glyph-name="braceleft" unicode="{" horiz-adv-x="819" 
d="M742 -176h-281c-107 0 -176 58 -176 171v531l-208 242v34l208 242v531c0 113 69 171 176 171h281v-212h-143c-47 0 -70 -22 -70 -66v-437l-191 -229v-34l191 -229v-437c0 -45 23 -67 70 -66h143v-212z" />
    <glyph glyph-name="bar" unicode="|" horiz-adv-x="382" 
d="M317 -143h-252v1851h252v-1851z" />
    <glyph glyph-name="braceright" unicode="}" horiz-adv-x="819" 
d="M358 -176h-281v212h143c47 0 70 22 70 66v437l191 229v34l-191 229v437c0 45 -23 67 -70 66h-143v212h281c107 0 176 -56 176 -171v-531l208 -242v-34l-208 -242v-531c0 -113 -69 -171 -176 -171z" />
    <glyph glyph-name="asciitilde" unicode="~" horiz-adv-x="774" 
d="M521 659c-68 0 -122 30 -146 59c-24 28 -62 59 -105 59c-51 0 -86 -30 -87 -81h-113c-3 145 68 215 191 215c71 0 124 -30 148 -58c24 -29 61 -59 105 -59c51 0 84 29 87 82h112c2 -145 -62 -217 -192 -217z" />
    <glyph glyph-name="exclamdown" unicode="&#xa1;" horiz-adv-x="387" 
d="M193 1089c39 0 71 -13 98 -40s40 -59 40 -97c0 -37 -13 -68 -40 -95s-59 -40 -98 -40c-37 0 -69 14 -96 41s-41 58 -41 94c0 37 14 70 41 97s59 40 96 40zM65 -505l36 1176h184l38 -1176h-258z" />
    <glyph glyph-name="cent" unicode="&#xa2;" 
d="M737 1094v-172h-251v184c0 71 -28 106 -85 106s-85 -35 -85 -106v-642c0 -71 28 -106 85 -106s85 35 85 106v186h251v-174c0 -187 -79 -294 -237 -322v-154h-198v155c-158 26 -237 133 -237 321v618c0 188 79 295 237 321v155h198v-153c158 -29 237 -136 237 -323z" />
    <glyph glyph-name="sterling" unicode="&#xa3;" horiz-adv-x="942" 
d="M432 620v-408h449v-212h-830v212h130v408h-130v209h130v437c0 114 29 195 88 244c59 48 141 72 248 72c224 0 336 -105 336 -316v-240h-251v239c0 71 -28 106 -85 106c-57 -1 -85 -36 -85 -106v-436h223v-209h-223z" />
    <glyph glyph-name="currency" unicode="&#xa4;" horiz-adv-x="1143" 
d="M1053 1454l-92 -94c49 -76 73 -159 73 -249s-24 -172 -71 -246l90 -90l-121 -120l-85 86c-81 -59 -172 -89 -275 -89s-194 30 -275 89l-85 -86l-122 120l91 90c-48 74 -72 156 -72 246s25 173 74 249l-93 94l122 120l88 -91c82 58 173 87 272 87s189 -29 271 -87l89 91z
M350 904c57 -63 131 -95 222 -95s165 32 222 95s85 132 85 207s-28 145 -85 209c-57 63 -131 95 -222 95s-165 -32 -222 -95c-57 -64 -85 -134 -85 -209s28 -144 85 -207z" />
    <glyph glyph-name="yen" unicode="&#xa5;" horiz-adv-x="858" 
d="M814 1570l-263 -990v-1h219v-81h-219v-82h219v-80h-219v-336h-246v336h-215v80h215v82h-215v81h215v1l-262 990h240l139 -623h13l138 623h241z" />
    <glyph glyph-name="brokenbar" unicode="&#xa6;" horiz-adv-x="382" 
d="M317 847h-252v861h252v-861zM65 719h252v-862h-252v862z" />
    <glyph glyph-name="section" unicode="&#xa7;" horiz-adv-x="824" 
d="M314 1266v-54c0 -73 51 -119 117 -135c33 -8 69 -18 108 -31s75 -27 108 -42s60 -42 83 -81c22 -39 33 -89 33 -148v-483c0 -223 -123 -312 -347 -312c-225 0 -346 89 -346 312v90h244v-78c0 -72 34 -108 102 -108c67 0 101 36 101 108v54c0 43 -15 77 -46 100
s-68 39 -111 49c-44 10 -88 23 -132 38c-88 30 -158 109 -158 250v483c0 223 124 313 345 313c220 0 343 -89 343 -313v-90h-244v78c0 72 -33 108 -99 108c-67 0 -101 -36 -101 -108zM314 922v-113c0 -33 10 -60 31 -82c20 -23 39 -37 58 -44c18 -7 50 -17 97 -28
c8 -2 14 -4 17 -5v111c0 51 -20 86 -56 107c-37 21 -73 33 -126 48c-9 2 -16 4 -21 6z" />
    <glyph glyph-name="dieresis" unicode="&#xa8;" horiz-adv-x="537" 
d="M181 1215c-41 -41 -110 -41 -150 0c-21 21 -31 46 -31 77c0 59 46 106 106 106c59 0 106 -47 106 -106c0 -31 -10 -56 -31 -77zM507 1215c-41 -41 -110 -41 -150 0c-21 21 -31 46 -31 77c0 59 46 106 106 106c59 0 106 -47 106 -106c0 -31 -10 -56 -31 -77z" />
    <glyph glyph-name="copyright" unicode="&#xa9;" horiz-adv-x="863" 
d="M430 852c-106 0 -193 35 -262 105s-103 158 -103 264c0 105 34 193 103 264s156 106 262 106c108 0 197 -35 266 -105s103 -158 103 -265s-34 -196 -103 -265s-158 -104 -266 -104zM435 998c93 0 177 46 202 139h-81c-23 -45 -63 -68 -121 -69c-87 0 -147 59 -147 152
s60 154 147 154c57 0 97 -23 121 -68h81c-25 93 -109 140 -202 140c-65 0 -118 -21 -161 -64s-64 -97 -64 -162c0 -64 21 -117 64 -159s96 -63 161 -63z" />
    <glyph glyph-name="ordfeminine" unicode="&#xaa;" horiz-adv-x="723" 
d="M679 724h-228l-18 119h-143l-17 -119h-229l120 710h396zM348 1236l-36 -243h99l-36 243h-27z" />
    <glyph glyph-name="guillemotleft" unicode="&#xab;" horiz-adv-x="1174" 
d="M348 717l331 -471h-256l-331 471l331 471h256zM751 717l331 -471h-256l-331 471l331 471h256z" />
    <glyph glyph-name="logicalnot" unicode="&#xac;" horiz-adv-x="798" 
d="M51 915h697v-401h-253v175h-444v226z" />
    <glyph glyph-name="uni00AD" unicode="&#xad;" horiz-adv-x="573" 
d="M509 672h-444v226h444v-226z" />
    <glyph glyph-name="registered" unicode="&#xae;" horiz-adv-x="863" 
d="M430 852c-106 0 -193 35 -262 105s-103 158 -103 264c0 105 34 193 103 264s156 106 262 106c108 0 197 -35 266 -105s103 -158 103 -265s-34 -196 -103 -265s-158 -104 -266 -104zM258 1428v-426h78v133h149l76 -133h86l-89 150c53 23 79 65 79 128
c0 91 -68 148 -181 148h-198zM457 1203h-121v154h121c64 0 96 -26 96 -77s-32 -77 -96 -77z" />
    <glyph glyph-name="overscore" unicode="&#xaf;" horiz-adv-x="498" 
d="M498 1178h-498v201h498v-201z" />
    <glyph glyph-name="degree" unicode="&#xb0;" horiz-adv-x="750" 
d="M146 1517c54 50 131 75 230 75s175 -25 229 -75s81 -134 81 -252v-318c0 -219 -103 -329 -310 -329s-311 110 -311 329v318c0 118 27 202 81 252zM461 937v336c0 72 -28 108 -85 108s-86 -36 -86 -108v-336c0 -72 29 -108 86 -108s85 36 85 108z" />
    <glyph glyph-name="plusminus" unicode="&#xb1;" horiz-adv-x="1003" 
d="M638 1379v-300h301v-239h-301v-301h-252v301h-301v239h301v300h252zM896 60h-831v239h831v-239z" />
    <glyph glyph-name="acute" unicode="&#xb4;" horiz-adv-x="310" 
d="M222 1161h-222l89 267h222z" />
    <glyph glyph-name="mu" unicode="&#xb5;" 
d="M486 302v1268h251v-1270c0 -114 -29 -195 -88 -243s-141 -72 -248 -72c-27 0 -53 2 -77 5v-246h-252v471c-5 23 -7 51 -7 85v1270h259v-1324c13 -33 38 -49 77 -50c57 0 85 35 85 106z" />
    <glyph glyph-name="paragraph" unicode="&#xb6;" horiz-adv-x="1143" 
d="M352 1570h414v-1570h-252v352h-162c-115 0 -191 23 -229 70c-39 47 -58 128 -58 245v587c0 117 19 199 57 246s115 70 230 70zM826 0v1570h253v-1570h-253zM413 575h101v770h-101c-73 0 -96 -28 -96 -109v-550c0 -84 23 -111 96 -111z" />
    <glyph glyph-name="middot" unicode="&#xb7;" horiz-adv-x="486" 
d="M242 649c-37 0 -69 13 -96 40s-40 59 -40 96s13 68 40 95s59 40 96 40c39 0 72 -13 99 -40s40 -58 40 -95s-13 -69 -40 -96s-60 -40 -99 -40z" />
    <glyph glyph-name="cedilla" unicode="&#xb8;" horiz-adv-x="300" 
d="M224 0l-84 -77c43 -6 81 -22 113 -48c31 -26 47 -65 47 -116c0 -84 -27 -139 -75 -163c-49 -24 -94 -31 -165 -31h-60v116h60c57 0 85 26 85 78c0 50 -30 75 -89 75h-56v87l85 79h139z" />
    <glyph glyph-name="ordmasculine" unicode="&#xba;" horiz-adv-x="844" 
d="M422 727c-101 0 -186 35 -254 104c-69 69 -103 154 -103 255s34 186 103 255c68 69 153 103 254 103c103 0 188 -34 256 -103s102 -154 102 -255s-34 -186 -102 -255s-153 -104 -256 -104zM422 937c42 0 77 15 106 44c28 29 42 64 42 105s-14 76 -42 105
c-29 29 -64 43 -106 43c-41 0 -75 -14 -104 -43s-43 -64 -43 -105s14 -76 43 -105s63 -44 104 -44z" />
    <glyph glyph-name="guillemotright" unicode="&#xbb;" horiz-adv-x="1174" 
d="M348 246h-256l331 471l-331 471h256l331 -471zM751 246h-256l331 471l-331 471h256l331 -471z" />
    <glyph glyph-name="questiondown" unicode="&#xbf;" horiz-adv-x="803" 
d="M425 1089c37 0 69 -13 96 -40s40 -59 40 -97c0 -37 -13 -68 -40 -95s-59 -40 -96 -40c-39 0 -71 14 -98 41s-40 58 -40 94c0 37 13 70 40 97s59 40 98 40zM492 39h250v-244c0 -211 -112 -316 -336 -316c-107 0 -189 24 -248 73s-88 130 -88 243v210c0 136 37 230 81 278
c22 24 45 46 68 66c46 40 81 94 81 175v147h246v-174c0 -123 -35 -208 -79 -250c-23 -21 -45 -41 -67 -60c-44 -37 -79 -95 -79 -182v-208c0 -71 29 -106 86 -106s85 35 85 106v242z" />
    <glyph glyph-name="Agrave" unicode="&#xc0;" horiz-adv-x="863" 
d="M454 1923l89 -268h-222l-89 268h222zM819 0h-240l-29 295h-236l-29 -295h-241l169 1570h437zM416 1343l-81 -838h194l-82 838h-31z" />
    <glyph glyph-name="Aacute" unicode="&#xc1;" horiz-adv-x="863" 
d="M410 1923h221l-88 -268h-222zM819 0h-240l-29 295h-236l-29 -295h-241l169 1570h437zM416 1343l-81 -838h194l-82 838h-31z" />
    <glyph glyph-name="Acircumflex" unicode="&#xc2;" horiz-adv-x="863" 
d="M440 1792h-20l-60 -137h-184l114 267h282l112 -267h-182zM819 0h-240l-29 295h-236l-29 -295h-241l169 1570h437zM416 1343l-81 -838h194l-82 838h-31z" />
    <glyph glyph-name="Atilde" unicode="&#xc3;" horiz-adv-x="863" 
d="M222 1695h-113c-3 145 71 216 191 216c71 0 124 -30 148 -59s62 -60 105 -60c51 0 84 30 87 82h113c1 -145 -63 -217 -193 -217c-68 0 -122 31 -146 60s-62 60 -105 60c-51 0 -84 -30 -87 -82zM819 0h-240l-29 295h-236l-29 -295h-241l169 1570h437zM416 1343l-81 -838
h194l-82 838h-31z" />
    <glyph glyph-name="Adieresis" unicode="&#xc4;" horiz-adv-x="863" 
d="M343 1710c-60 -67 -187 -18 -181 77c0 59 47 106 106 106s106 -47 106 -106c0 -31 -10 -56 -31 -77zM669 1710c-60 -67 -187 -18 -181 77c0 59 47 106 106 106s106 -47 106 -106c0 -31 -10 -56 -31 -77zM819 0h-240l-29 295h-236l-29 -295h-241l169 1570h437zM416 1343
l-81 -838h194l-82 838h-31z" />
    <glyph glyph-name="Aring" unicode="&#xc5;" horiz-adv-x="863" 
d="M430 1580c-55 0 -100 18 -135 54c-36 36 -54 81 -54 134s18 98 54 134c35 36 80 54 135 54c56 0 102 -18 137 -54s53 -81 53 -134s-18 -98 -53 -134s-81 -54 -137 -54zM430 1840c-60 5 -94 -82 -50 -123c40 -44 126 -14 120 51c0 41 -29 72 -70 72zM819 0h-240l-29 295
h-236l-29 -295h-241l169 1570h437zM416 1343l-81 -838h194l-82 838h-31z" />
    <glyph glyph-name="AE" unicode="&#xc6;" horiz-adv-x="1126" 
d="M1062 1570v-211h-241v-468h235v-208h-235v-471h241v-212h-492v312h-222l-60 -312h-244l308 1570h710zM543 1345l-154 -814h181v814h-27z" />
    <glyph glyph-name="Ccedilla" unicode="&#xc7;" 
d="M737 1270v-244h-251v242c0 71 -28 106 -85 106s-85 -35 -85 -106v-969c0 -71 28 -106 85 -106s85 35 85 106v247h251v-249c0 -184 -85 -288 -254 -311l-68 -63c43 -6 81 -22 113 -48c31 -26 47 -65 47 -116c0 -84 -27 -139 -75 -163c-49 -24 -96 -31 -165 -31h-60v116h60
c57 0 85 26 85 78c0 50 -30 75 -89 75h-56v87l68 62c-185 17 -278 122 -278 314v973c0 211 112 316 336 315c107 0 189 -24 248 -72c59 -49 88 -130 88 -243z" />
    <glyph glyph-name="Egrave" unicode="&#xc8;" horiz-adv-x="621" 
d="M345 1923l88 -268h-221l-89 268h222zM556 1570v-211h-240v-468h235v-208h-235v-471h240v-212h-491v1570h491z" />
    <glyph glyph-name="Eacute" unicode="&#xc9;" horiz-adv-x="621" 
d="M300 1923h222l-89 -268h-221zM556 1570v-211h-240v-468h235v-208h-235v-471h240v-212h-491v1570h491z" />
    <glyph glyph-name="Ecircumflex" unicode="&#xca;" horiz-adv-x="621" 
d="M331 1792h-20l-60 -137h-184l114 267h282l112 -267h-182zM65 1570h491v-211h-240v-468h235v-208h-235v-471h240v-212h-491v1570z" />
    <glyph glyph-name="Edieresis" unicode="&#xcb;" horiz-adv-x="621" 
d="M234 1710c-41 -41 -110 -41 -150 0c-21 21 -31 46 -31 77c0 59 46 106 106 106c59 0 106 -47 106 -106c0 -31 -10 -56 -31 -77zM410 1862c40 41 109 41 150 0c21 -21 31 -46 31 -75c0 -61 -47 -108 -106 -108c-60 0 -106 47 -106 108c0 29 10 54 31 75zM65 1570h491v-211
h-240v-468h235v-208h-235v-471h240v-212h-491v1570z" />
    <glyph glyph-name="Igrave" unicode="&#xcc;" horiz-adv-x="380" 
d="M215 1923l89 -268h-222l-89 268h222zM316 0h-251v1570h251v-1570z" />
    <glyph glyph-name="Iacute" unicode="&#xcd;" horiz-adv-x="380" 
d="M304 1655h-222l89 268h222zM316 0h-251v1570h251v-1570z" />
    <glyph glyph-name="Icircumflex" unicode="&#xce;" horiz-adv-x="380" 
d="M121 1655h-184l114 267h282l112 -267h-182l-62 137h-20zM316 0h-251v1570h251v-1570z" />
    <glyph glyph-name="Idieresis" unicode="&#xcf;" horiz-adv-x="380" 
d="M104 1710c-60 -67 -187 -18 -181 77c0 59 47 106 106 106s106 -47 106 -106c0 -31 -10 -56 -31 -77zM430 1710c-60 -67 -187 -18 -181 77c0 59 47 106 106 106s106 -47 106 -106c0 -31 -10 -56 -31 -77zM316 0h-251v1570h251v-1570z" />
    <glyph glyph-name="Eth" unicode="&#xd0;" horiz-adv-x="832" 
d="M96 1570h384c116 0 193 -23 231 -70s57 -129 57 -246v-938c0 -117 -19 -199 -57 -246s-115 -70 -231 -70h-384v672h-45v226h45v672zM517 317v936c0 81 -23 106 -95 106h-76v-461h93v-226h-93v-460h76c73 0 95 24 95 105z" />
    <glyph glyph-name="Ntilde" unicode="&#xd1;" horiz-adv-x="909" 
d="M585 1657c-68 0 -122 31 -145 60c-24 29 -62 60 -105 60c-51 0 -85 -30 -88 -82h-112c-3 145 71 216 191 216c71 0 124 -30 148 -59s61 -60 105 -60c51 0 84 30 87 82h112c1 -145 -63 -217 -193 -217zM297 0h-232v1570h324l215 -1160h16l-7 187v973h232v-1570h-323
l-215 1161h-17l7 -188v-973z" />
    <glyph glyph-name="Ograve" unicode="&#xd2;" 
d="M425 1923l89 -268h-222l-89 268h222zM401 1585c107 0 189 -24 248 -72c59 -49 88 -130 88 -243v-970c0 -114 -29 -195 -88 -243s-141 -72 -248 -72c-224 0 -336 105 -336 315v970c0 210 112 315 336 315zM486 302v966c0 71 -28 106 -85 106s-85 -35 -85 -106v-966
c0 -71 28 -106 85 -106s85 35 85 106z" />
    <glyph glyph-name="Oacute" unicode="&#xd3;" 
d="M514 1655h-222l89 268h221zM401 1585c107 0 189 -24 248 -72c59 -49 88 -130 88 -243v-970c0 -114 -29 -195 -88 -243s-141 -72 -248 -72c-224 0 -336 105 -336 315v970c0 210 112 315 336 315zM486 302v966c0 71 -28 106 -85 106s-85 -35 -85 -106v-966
c0 -71 28 -106 85 -106s85 35 85 106z" />
    <glyph glyph-name="Ocircumflex" unicode="&#xd4;" 
d="M331 1655h-184l114 267h282l112 -267h-182l-62 137h-20zM401 1585c107 0 189 -24 248 -72c59 -49 88 -130 88 -243v-970c0 -114 -29 -195 -88 -243s-141 -72 -248 -72c-224 0 -336 105 -336 315v970c0 210 112 315 336 315zM486 302v966c0 71 -28 106 -85 106
s-85 -35 -85 -106v-966c0 -71 28 -106 85 -106s85 35 85 106z" />
    <glyph glyph-name="Otilde" unicode="&#xd5;" 
d="M531 1657c-68 0 -122 31 -146 60s-62 60 -105 60c-51 0 -84 -30 -87 -82h-113c-3 145 71 216 191 216c71 0 124 -30 148 -59s62 -60 105 -60c51 0 84 30 87 82h113c1 -145 -63 -217 -193 -217zM401 1585c107 0 189 -24 248 -72c59 -49 88 -130 88 -243v-970
c0 -114 -29 -195 -88 -243s-141 -72 -248 -72c-224 0 -336 105 -336 315v970c0 210 112 315 336 315zM486 302v966c0 71 -28 106 -85 106s-85 -35 -85 -106v-966c0 -71 28 -106 85 -106s85 35 85 106z" />
    <glyph glyph-name="Odieresis" unicode="&#xd6;" 
d="M314 1710c-60 -67 -187 -18 -181 77c0 59 47 106 106 106s106 -47 106 -106c0 -31 -10 -56 -31 -77zM640 1710c-60 -67 -187 -18 -181 77c0 59 47 106 106 106s106 -47 106 -106c0 -31 -10 -56 -31 -77zM401 1585c107 0 189 -24 248 -72c59 -49 88 -130 88 -243v-970
c0 -114 -29 -195 -88 -243s-141 -72 -248 -72c-224 0 -336 105 -336 315v970c0 210 112 315 336 315zM486 302v966c0 71 -28 106 -85 106s-85 -35 -85 -106v-966c0 -71 28 -106 85 -106s85 35 85 106z" />
    <glyph glyph-name="multiply" unicode="&#xd7;" horiz-adv-x="935" 
d="M676 1169l177 -179l-211 -212l211 -213l-169 -169l-211 213l-214 -213l-177 179l212 212l-212 213l169 169l212 -213z" />
    <glyph glyph-name="Oslash" unicode="&#xd8;" horiz-adv-x="824" 
d="M659 1591h100l-51 -139c26 -47 39 -107 40 -182v-970c0 -114 -29 -195 -88 -243s-142 -72 -249 -72c-95 0 -170 18 -223 54l-22 -59h-101l51 138c-27 45 -41 106 -41 182v970c0 211 112 316 336 315c97 0 172 -18 226 -54zM326 1268v-580l171 462v118
c0 71 -28 106 -85 106s-86 -35 -86 -106zM497 302v575l-171 -462v-113c0 -71 29 -106 86 -106s85 35 85 106z" />
    <glyph glyph-name="Ugrave" unicode="&#xd9;" 
d="M425 1923l89 -268h-222l-89 268h222zM486 1570h251v-1270c0 -114 -29 -195 -88 -243s-141 -72 -248 -72c-224 0 -336 105 -336 315v1270h251v-1268c0 -71 28 -106 85 -106s85 35 85 106v1268z" />
    <glyph glyph-name="Uacute" unicode="&#xda;" 
d="M514 1655h-222l89 268h221zM486 1570h251v-1270c0 -114 -29 -195 -88 -243s-141 -72 -248 -72c-224 0 -336 105 -336 315v1270h251v-1268c0 -71 28 -106 85 -106s85 35 85 106v1268z" />
    <glyph glyph-name="Ucircumflex" unicode="&#xdb;" 
d="M331 1655h-184l114 267h282l112 -267h-182l-62 137h-20zM486 1570h251v-1270c0 -114 -29 -195 -88 -243s-141 -72 -248 -72c-224 0 -336 105 -336 315v1270h251v-1268c0 -71 28 -106 85 -106s85 35 85 106v1268z" />
    <glyph glyph-name="Udieresis" unicode="&#xdc;" 
d="M314 1710c-60 -67 -187 -18 -181 77c0 59 47 106 106 106s106 -47 106 -106c0 -31 -10 -56 -31 -77zM640 1710c-60 -67 -187 -18 -181 77c0 59 47 106 106 106s106 -47 106 -106c0 -31 -10 -56 -31 -77zM486 1570h251v-1270c0 -114 -29 -195 -88 -243s-141 -72 -248 -72
c-224 0 -336 105 -336 315v1270h251v-1268c0 -71 28 -106 85 -106s85 35 85 106v1268z" />
    <glyph glyph-name="Yacute" unicode="&#xdd;" horiz-adv-x="853" 
d="M406 1923h222l-89 -268h-222zM433 947l139 623h240l-262 -990v-580h-246v580l-263 990h241l138 -623h13z" />
    <glyph glyph-name="Thorn" unicode="&#xde;" horiz-adv-x="788" 
d="M317 1396h96c125 0 209 -23 250 -70s61 -130 61 -251v-578c0 -121 -20 -204 -61 -251s-125 -70 -250 -70h-96v-176h-252v1570h252v-174zM471 514v544c0 84 -26 113 -99 113h-55v-770h55c73 0 99 29 99 113z" />
    <glyph glyph-name="germandbls" unicode="&#xdf;" horiz-adv-x="812" 
d="M744 1270v-219c0 -132 -39 -198 -136 -245v-12c97 -51 140 -117 140 -246v-260c0 -111 -28 -187 -84 -227c-57 -41 -143 -61 -258 -61h-39v198h36c65 0 99 28 99 107v279c0 87 -34 117 -103 117h-32v197h32c65 0 101 32 101 119v251c0 71 -32 106 -96 106
c-59 0 -89 -35 -88 -106v-1268h-251v1270c0 211 113 316 339 315c108 0 192 -24 251 -72c59 -49 89 -130 89 -243z" />
    <glyph glyph-name="agrave" unicode="&#xe0;" horiz-adv-x="863" 
d="M454 1923l89 -268h-222l-89 268h222zM819 0h-240l-29 295h-236l-29 -295h-241l169 1570h437zM416 1343l-81 -838h194l-82 838h-31z" />
    <glyph glyph-name="aacute" unicode="&#xe1;" horiz-adv-x="863" 
d="M410 1923h221l-88 -268h-222zM819 0h-240l-29 295h-236l-29 -295h-241l169 1570h437zM416 1343l-81 -838h194l-82 838h-31z" />
    <glyph glyph-name="acircumflex" unicode="&#xe2;" horiz-adv-x="863" 
d="M440 1792h-20l-60 -137h-184l114 267h282l112 -267h-182zM819 0h-240l-29 295h-236l-29 -295h-241l169 1570h437zM416 1343l-81 -838h194l-82 838h-31z" />
    <glyph glyph-name="atilde" unicode="&#xe3;" horiz-adv-x="863" 
d="M222 1695h-113c-3 145 71 216 191 216c71 0 124 -30 148 -59s62 -60 105 -60c51 0 84 30 87 82h113c1 -145 -63 -217 -193 -217c-68 0 -122 31 -146 60s-62 60 -105 60c-51 0 -84 -30 -87 -82zM819 0h-240l-29 295h-236l-29 -295h-241l169 1570h437zM416 1343l-81 -838
h194l-82 838h-31z" />
    <glyph glyph-name="adieresis" unicode="&#xe4;" horiz-adv-x="863" 
d="M343 1710c-60 -67 -187 -18 -181 77c0 59 47 106 106 106s106 -47 106 -106c0 -31 -10 -56 -31 -77zM669 1710c-60 -67 -187 -18 -181 77c0 59 47 106 106 106s106 -47 106 -106c0 -31 -10 -56 -31 -77zM819 0h-240l-29 295h-236l-29 -295h-241l169 1570h437zM416 1343
l-81 -838h194l-82 838h-31z" />
    <glyph glyph-name="aring" unicode="&#xe5;" horiz-adv-x="863" 
d="M430 1580c-55 0 -100 18 -135 54c-36 36 -54 81 -54 134s18 98 54 134c35 36 80 54 135 54c56 0 102 -18 137 -54s53 -81 53 -134s-18 -98 -53 -134s-81 -54 -137 -54zM430 1840c-60 5 -94 -82 -50 -123c40 -44 126 -14 120 51c0 41 -29 72 -70 72zM819 0h-240l-29 295
h-236l-29 -295h-241l169 1570h437zM416 1343l-81 -838h194l-82 838h-31z" />
    <glyph glyph-name="ae" unicode="&#xe6;" horiz-adv-x="1126" 
d="M1062 1570v-211h-241v-468h235v-208h-235v-471h241v-212h-492v312h-222l-60 -312h-244l308 1570h710zM543 1345l-154 -814h181v814h-27z" />
    <glyph glyph-name="ccedilla" unicode="&#xe7;" 
d="M737 1270v-244h-251v242c0 71 -28 106 -85 106s-85 -35 -85 -106v-969c0 -71 28 -106 85 -106s85 35 85 106v247h251v-249c0 -184 -85 -288 -254 -311l-68 -63c43 -6 81 -22 113 -48c31 -26 47 -65 47 -116c0 -84 -27 -139 -75 -163c-49 -24 -96 -31 -165 -31h-60v116h60
c57 0 85 26 85 78c0 50 -30 75 -89 75h-56v87l68 62c-185 17 -278 122 -278 314v973c0 211 112 316 336 315c107 0 189 -24 248 -72c59 -49 88 -130 88 -243z" />
    <glyph glyph-name="egrave" unicode="&#xe8;" horiz-adv-x="621" 
d="M345 1923l88 -268h-221l-89 268h222zM556 1570v-211h-240v-468h235v-208h-235v-471h240v-212h-491v1570h491z" />
    <glyph glyph-name="eacute" unicode="&#xe9;" horiz-adv-x="621" 
d="M300 1923h222l-89 -268h-221zM556 1570v-211h-240v-468h235v-208h-235v-471h240v-212h-491v1570h491z" />
    <glyph glyph-name="ecircumflex" unicode="&#xea;" horiz-adv-x="621" 
d="M331 1792h-20l-60 -137h-184l114 267h282l112 -267h-182zM65 1570h491v-211h-240v-468h235v-208h-235v-471h240v-212h-491v1570z" />
    <glyph glyph-name="edieresis" unicode="&#xeb;" horiz-adv-x="621" 
d="M234 1710c-41 -41 -110 -41 -150 0c-21 21 -31 46 -31 77c0 59 46 106 106 106c59 0 106 -47 106 -106c0 -31 -10 -56 -31 -77zM410 1862c40 41 109 41 150 0c21 -21 31 -46 31 -75c0 -61 -47 -108 -106 -108c-60 0 -106 47 -106 108c0 29 10 54 31 75zM65 1570h491v-211
h-240v-468h235v-208h-235v-471h240v-212h-491v1570z" />
    <glyph glyph-name="igrave" unicode="&#xec;" horiz-adv-x="380" 
d="M215 1923l89 -268h-222l-89 268h222zM316 0h-251v1570h251v-1570z" />
    <glyph glyph-name="iacute" unicode="&#xed;" horiz-adv-x="380" 
d="M304 1655h-222l89 268h222zM316 0h-251v1570h251v-1570z" />
    <glyph glyph-name="icircumflex" unicode="&#xee;" horiz-adv-x="380" 
d="M121 1655h-184l114 267h282l112 -267h-182l-62 137h-20zM316 0h-251v1570h251v-1570z" />
    <glyph glyph-name="idieresis" unicode="&#xef;" horiz-adv-x="380" 
d="M104 1710c-60 -67 -187 -18 -181 77c0 59 47 106 106 106s106 -47 106 -106c0 -31 -10 -56 -31 -77zM430 1710c-60 -67 -187 -18 -181 77c0 59 47 106 106 106s106 -47 106 -106c0 -31 -10 -56 -31 -77zM316 0h-251v1570h251v-1570z" />
    <glyph glyph-name="eth" unicode="&#xf0;" horiz-adv-x="832" 
d="M96 1570h384c116 0 193 -23 231 -70s57 -129 57 -246v-938c0 -117 -19 -199 -57 -246s-115 -70 -231 -70h-384v672h-45v226h45v672zM517 317v936c0 81 -23 106 -95 106h-76v-461h93v-226h-93v-460h76c73 0 95 24 95 105z" />
    <glyph glyph-name="ntilde" unicode="&#xf1;" horiz-adv-x="909" 
d="M585 1657c-68 0 -122 31 -145 60c-24 29 -62 60 -105 60c-51 0 -85 -30 -88 -82h-112c-3 145 71 216 191 216c71 0 124 -30 148 -59s61 -60 105 -60c51 0 84 30 87 82h112c1 -145 -63 -217 -193 -217zM297 0h-232v1570h324l215 -1160h16l-7 187v973h232v-1570h-323
l-215 1161h-17l7 -188v-973z" />
    <glyph glyph-name="ograve" unicode="&#xf2;" 
d="M425 1923l89 -268h-222l-89 268h222zM401 1585c107 0 189 -24 248 -72c59 -49 88 -130 88 -243v-970c0 -114 -29 -195 -88 -243s-141 -72 -248 -72c-224 0 -336 105 -336 315v970c0 210 112 315 336 315zM486 302v966c0 71 -28 106 -85 106s-85 -35 -85 -106v-966
c0 -71 28 -106 85 -106s85 35 85 106z" />
    <glyph glyph-name="oacute" unicode="&#xf3;" 
d="M514 1655h-222l89 268h221zM401 1585c107 0 189 -24 248 -72c59 -49 88 -130 88 -243v-970c0 -114 -29 -195 -88 -243s-141 -72 -248 -72c-224 0 -336 105 -336 315v970c0 210 112 315 336 315zM486 302v966c0 71 -28 106 -85 106s-85 -35 -85 -106v-966
c0 -71 28 -106 85 -106s85 35 85 106z" />
    <glyph glyph-name="ocircumflex" unicode="&#xf4;" 
d="M331 1655h-184l114 267h282l112 -267h-182l-62 137h-20zM401 1585c107 0 189 -24 248 -72c59 -49 88 -130 88 -243v-970c0 -114 -29 -195 -88 -243s-141 -72 -248 -72c-224 0 -336 105 -336 315v970c0 210 112 315 336 315zM486 302v966c0 71 -28 106 -85 106
s-85 -35 -85 -106v-966c0 -71 28 -106 85 -106s85 35 85 106z" />
    <glyph glyph-name="otilde" unicode="&#xf5;" 
d="M531 1657c-68 0 -122 31 -146 60s-62 60 -105 60c-51 0 -84 -30 -87 -82h-113c-3 145 71 216 191 216c71 0 124 -30 148 -59s62 -60 105 -60c51 0 84 30 87 82h113c1 -145 -63 -217 -193 -217zM401 1585c107 0 189 -24 248 -72c59 -49 88 -130 88 -243v-970
c0 -114 -29 -195 -88 -243s-141 -72 -248 -72c-224 0 -336 105 -336 315v970c0 210 112 315 336 315zM486 302v966c0 71 -28 106 -85 106s-85 -35 -85 -106v-966c0 -71 28 -106 85 -106s85 35 85 106z" />
    <glyph glyph-name="odieresis" unicode="&#xf6;" 
d="M314 1710c-60 -67 -187 -18 -181 77c0 59 47 106 106 106s106 -47 106 -106c0 -31 -10 -56 -31 -77zM640 1710c-60 -67 -187 -18 -181 77c0 59 47 106 106 106s106 -47 106 -106c0 -31 -10 -56 -31 -77zM401 1585c107 0 189 -24 248 -72c59 -49 88 -130 88 -243v-970
c0 -114 -29 -195 -88 -243s-141 -72 -248 -72c-224 0 -336 105 -336 315v970c0 210 112 315 336 315zM486 302v966c0 71 -28 106 -85 106s-85 -35 -85 -106v-966c0 -71 28 -106 85 -106s85 35 85 106z" />
    <glyph glyph-name="divide" unicode="&#xf7;" horiz-adv-x="976" 
d="M585 1104c-25 -25 -55 -37 -90 -37s-65 12 -89 37c-25 24 -37 53 -37 87s12 63 37 88c24 25 54 37 89 37s65 -12 90 -37c24 -25 36 -54 36 -88s-12 -63 -36 -87zM922 666h-859v239h859v-239zM585 293c-25 -25 -55 -37 -90 -37s-65 12 -89 37c-25 24 -37 53 -37 88
c0 34 12 63 37 88c24 24 54 36 89 36s65 -12 90 -36c24 -25 36 -54 36 -88c0 -35 -12 -64 -36 -88z" />
    <glyph glyph-name="oslash" unicode="&#xf8;" horiz-adv-x="824" 
d="M659 1591h100l-51 -139c26 -47 39 -107 40 -182v-970c0 -114 -29 -195 -88 -243s-142 -72 -249 -72c-95 0 -170 18 -223 54l-22 -59h-101l51 138c-27 45 -41 106 -41 182v970c0 211 112 316 336 315c97 0 172 -18 226 -54zM326 1268v-580l171 462v118
c0 71 -28 106 -85 106s-86 -35 -86 -106zM497 302v575l-171 -462v-113c0 -71 29 -106 86 -106s85 35 85 106z" />
    <glyph glyph-name="ugrave" unicode="&#xf9;" 
d="M425 1923l89 -268h-222l-89 268h222zM486 1570h251v-1270c0 -114 -29 -195 -88 -243s-141 -72 -248 -72c-224 0 -336 105 -336 315v1270h251v-1268c0 -71 28 -106 85 -106s85 35 85 106v1268z" />
    <glyph glyph-name="uacute" unicode="&#xfa;" 
d="M514 1655h-222l89 268h221zM486 1570h251v-1270c0 -114 -29 -195 -88 -243s-141 -72 -248 -72c-224 0 -336 105 -336 315v1270h251v-1268c0 -71 28 -106 85 -106s85 35 85 106v1268z" />
    <glyph glyph-name="ucircumflex" unicode="&#xfb;" 
d="M331 1655h-184l114 267h282l112 -267h-182l-62 137h-20zM486 1570h251v-1270c0 -114 -29 -195 -88 -243s-141 -72 -248 -72c-224 0 -336 105 -336 315v1270h251v-1268c0 -71 28 -106 85 -106s85 35 85 106v1268z" />
    <glyph glyph-name="udieresis" unicode="&#xfc;" 
d="M314 1710c-60 -67 -187 -18 -181 77c0 59 47 106 106 106s106 -47 106 -106c0 -31 -10 -56 -31 -77zM640 1710c-60 -67 -187 -18 -181 77c0 59 47 106 106 106s106 -47 106 -106c0 -31 -10 -56 -31 -77zM486 1570h251v-1270c0 -114 -29 -195 -88 -243s-141 -72 -248 -72
c-224 0 -336 105 -336 315v1270h251v-1268c0 -71 28 -106 85 -106s85 35 85 106v1268z" />
    <glyph glyph-name="yacute" unicode="&#xfd;" horiz-adv-x="853" 
d="M406 1923h222l-89 -268h-222zM433 947l139 623h240l-262 -990v-580h-246v580l-263 990h241l138 -623h13z" />
    <glyph glyph-name="thorn" unicode="&#xfe;" horiz-adv-x="788" 
d="M317 1396h96c125 0 209 -23 250 -70s61 -130 61 -251v-578c0 -121 -20 -204 -61 -251s-125 -70 -250 -70h-96v-176h-252v1570h252v-174zM471 514v544c0 84 -26 113 -99 113h-55v-770h55c73 0 99 29 99 113z" />
    <glyph glyph-name="ydieresis" unicode="&#xff;" horiz-adv-x="853" 
d="M340 1710c-41 -41 -110 -41 -150 0c-21 21 -31 46 -31 77c0 59 46 106 106 106c59 0 105 -47 105 -106c0 -31 -10 -56 -30 -77zM666 1710c-41 -41 -110 -41 -150 0c-21 21 -31 46 -31 77c0 59 46 106 106 106c59 0 105 -47 105 -106c0 -31 -10 -56 -30 -77zM433 947
l139 623h240l-262 -990v-580h-246v580l-263 990h241l138 -623h13z" />
    <glyph glyph-name="Amacron" unicode="&#x100;" horiz-adv-x="863" 
d="M181 1874h498v-201h-498v201zM819 0h-240l-29 295h-236l-29 -295h-241l169 1570h437zM416 1343l-81 -838h194l-82 838h-31z" />
    <glyph glyph-name="amacron" unicode="&#x101;" horiz-adv-x="863" 
d="M181 1874h498v-201h-498v201zM819 0h-240l-29 295h-236l-29 -295h-241l169 1570h437zM416 1343l-81 -838h194l-82 838h-31z" />
    <glyph glyph-name="Abreve" unicode="&#x102;" horiz-adv-x="863" 
d="M430 1657c-97 0 -167 14 -210 42s-65 81 -65 160v61h166v-26c0 -61 38 -82 109 -82s108 21 108 82v26h165v-61c0 -79 -22 -132 -65 -160s-113 -42 -208 -42zM819 0h-240l-29 295h-236l-29 -295h-241l169 1570h437zM416 1343l-81 -838h194l-82 838h-31z" />
    <glyph glyph-name="abreve" unicode="&#x103;" horiz-adv-x="863" 
d="M430 1657c-97 0 -167 14 -210 42s-65 81 -65 160v61h166v-26c0 -61 38 -82 109 -82s108 21 108 82v26h165v-61c0 -79 -22 -132 -65 -160s-113 -42 -208 -42zM819 0h-240l-29 295h-236l-29 -295h-241l169 1570h437zM416 1343l-81 -838h194l-82 838h-31z" />
    <glyph glyph-name="Aogonek" unicode="&#x104;" horiz-adv-x="863" 
d="M819 0h-106c-71 0 -104 -41 -104 -97c0 -66 35 -99 104 -99h89l-22 -169h-72c-207 0 -321 101 -321 268c0 115 60 189 180 223l-17 169h-236l-29 -295h-241l169 1570h437zM416 1343l-81 -838h194l-82 838h-31z" />
    <glyph glyph-name="aogonek" unicode="&#x105;" horiz-adv-x="863" 
d="M819 0h-106c-71 0 -104 -41 -104 -97c0 -66 35 -99 104 -99h89l-22 -169h-72c-207 0 -321 101 -321 268c0 115 60 189 180 223l-17 169h-236l-29 -295h-241l169 1570h437zM416 1343l-81 -838h194l-82 838h-31z" />
    <glyph glyph-name="Cacute" unicode="&#x106;" 
d="M514 1655h-222l89 268h221zM486 546h251v-249c0 -211 -112 -316 -336 -316s-336 105 -336 316v973c0 211 112 316 336 315c107 0 189 -24 248 -72c59 -49 88 -130 88 -243v-244h-251v242c0 71 -28 106 -85 106s-85 -35 -85 -106v-969c0 -71 28 -106 85 -106s85 35 85 106
v247z" />
    <glyph glyph-name="cacute" unicode="&#x107;" 
d="M514 1655h-222l89 268h221zM486 546h251v-249c0 -211 -112 -316 -336 -316s-336 105 -336 316v973c0 211 112 316 336 315c107 0 189 -24 248 -72c59 -49 88 -130 88 -243v-244h-251v242c0 71 -28 106 -85 106s-85 -35 -85 -106v-969c0 -71 28 -106 85 -106s85 35 85 106
v247z" />
    <glyph glyph-name="Cdotaccent" unicode="&#x10a;" 
d="M480 1710c-64 -67 -196 -18 -190 77c0 59 50 106 111 106s111 -47 111 -106c0 -31 -11 -56 -32 -77zM486 546h251v-249c0 -211 -112 -316 -336 -316s-336 105 -336 316v973c0 211 112 316 336 315c107 0 189 -24 248 -72c59 -49 88 -130 88 -243v-244h-251v242
c0 71 -28 106 -85 106s-85 -35 -85 -106v-969c0 -71 28 -106 85 -106s85 35 85 106v247z" />
    <glyph glyph-name="cdotaccent" unicode="&#x10b;" 
d="M480 1710c-64 -67 -196 -18 -190 77c0 59 50 106 111 106s111 -47 111 -106c0 -31 -11 -56 -32 -77zM486 546h251v-249c0 -211 -112 -316 -336 -316s-336 105 -336 316v973c0 211 112 316 336 315c107 0 189 -24 248 -72c59 -49 88 -130 88 -243v-244h-251v242
c0 71 -28 106 -85 106s-85 -35 -85 -106v-969c0 -71 28 -106 85 -106s85 35 85 106v247z" />
    <glyph glyph-name="Ccaron" unicode="&#x10c;" 
d="M261 1655l-114 267h184l60 -137h20l62 137h182l-112 -267h-282zM486 546h251v-249c0 -211 -112 -316 -336 -316s-336 105 -336 316v973c0 211 112 316 336 315c107 0 189 -24 248 -72c59 -49 88 -130 88 -243v-244h-251v242c0 71 -28 106 -85 106s-85 -35 -85 -106v-969
c0 -71 28 -106 85 -106s85 35 85 106v247z" />
    <glyph glyph-name="ccaron" unicode="&#x10d;" 
d="M261 1655l-114 267h184l60 -137h20l62 137h182l-112 -267h-282zM486 546h251v-249c0 -211 -112 -316 -336 -316s-336 105 -336 316v973c0 211 112 316 336 315c107 0 189 -24 248 -72c59 -49 88 -130 88 -243v-244h-251v242c0 71 -28 106 -85 106s-85 -35 -85 -106v-969
c0 -71 28 -106 85 -106s85 35 85 106v247z" />
    <glyph glyph-name="Dcaron" unicode="&#x10e;" 
d="M655 1922l-112 -267h-282l-114 267h184l60 -137h20l62 137h182zM65 1570h384c116 0 193 -23 231 -70s57 -129 57 -246v-938c0 -117 -19 -199 -57 -246s-115 -70 -231 -70h-384v1570zM486 317v936c0 81 -23 106 -95 106h-75v-1147h75c73 0 95 24 95 105z" />
    <glyph glyph-name="dcaron" unicode="&#x10f;" 
d="M655 1922l-112 -267h-282l-114 267h184l60 -137h20l62 137h182zM65 1570h384c116 0 193 -23 231 -70s57 -129 57 -246v-938c0 -117 -19 -199 -57 -246s-115 -70 -231 -70h-384v1570zM486 317v936c0 81 -23 106 -95 106h-75v-1147h75c73 0 95 24 95 105z" />
    <glyph glyph-name="Dcroat" unicode="&#x110;" horiz-adv-x="832" 
d="M96 1570h384c116 0 193 -23 231 -70s57 -129 57 -246v-938c0 -117 -19 -199 -57 -246s-115 -70 -231 -70h-384v672h-45v226h45v672zM517 317v936c0 81 -23 106 -95 106h-76v-461h93v-226h-93v-460h76c73 0 95 24 95 105z" />
    <glyph glyph-name="dslash" unicode="&#x111;" horiz-adv-x="832" 
d="M96 1570h384c116 0 193 -23 231 -70s57 -129 57 -246v-938c0 -117 -19 -199 -57 -246s-115 -70 -231 -70h-384v672h-45v226h45v672zM517 317v936c0 81 -23 106 -95 106h-76v-461h93v-226h-93v-460h76c73 0 95 24 95 105z" />
    <glyph glyph-name="Emacron" unicode="&#x112;" horiz-adv-x="621" 
d="M72 1673v201h498v-201h-498zM65 1570h491v-211h-240v-468h235v-208h-235v-471h240v-212h-491v1570z" />
    <glyph glyph-name="emacron" unicode="&#x113;" horiz-adv-x="621" 
d="M72 1673v201h498v-201h-498zM65 1570h491v-211h-240v-468h235v-208h-235v-471h240v-212h-491v1570z" />
    <glyph glyph-name="Edotaccent" unicode="&#x116;" horiz-adv-x="621" 
d="M400 1710c-64 -67 -196 -18 -190 77c0 59 50 106 111 106s111 -47 111 -106c0 -31 -11 -56 -32 -77zM556 1570v-211h-240v-468h235v-208h-235v-471h240v-212h-491v1570h491z" />
    <glyph glyph-name="edotaccent" unicode="&#x117;" horiz-adv-x="621" 
d="M400 1710c-64 -67 -196 -18 -190 77c0 59 50 106 111 106s111 -47 111 -106c0 -31 -11 -56 -32 -77zM556 1570v-211h-240v-468h235v-208h-235v-471h240v-212h-491v1570h491z" />
    <glyph glyph-name="Eogonek" unicode="&#x118;" horiz-adv-x="621" 
d="M556 1570v-211h-240v-468h235v-208h-235v-471h240v-212h-88c-71 0 -104 -41 -104 -97c0 -66 35 -99 104 -99h88l-22 -169h-71c-207 0 -321 101 -321 268c0 34 6 66 18 97h-95v1570h491z" />
    <glyph glyph-name="eogonek" unicode="&#x119;" horiz-adv-x="621" 
d="M556 1570v-211h-240v-468h235v-208h-235v-471h240v-212h-88c-71 0 -104 -41 -104 -97c0 -66 35 -99 104 -99h88l-22 -169h-71c-207 0 -321 101 -321 268c0 34 6 66 18 97h-95v1570h491z" />
    <glyph glyph-name="Ecaron" unicode="&#x11a;" horiz-adv-x="621" 
d="M575 1922l-112 -267h-282l-114 267h184l60 -137h20l62 137h182zM65 1570h491v-211h-240v-468h235v-208h-235v-471h240v-212h-491v1570z" />
    <glyph glyph-name="ecaron" unicode="&#x11b;" horiz-adv-x="621" 
d="M575 1922l-112 -267h-282l-114 267h184l60 -137h20l62 137h182zM65 1570h491v-211h-240v-468h235v-208h-235v-471h240v-212h-491v1570z" />
    <glyph glyph-name="Gbreve" unicode="&#x11e;" 
d="M401 1657c-97 0 -167 14 -210 42s-65 81 -65 160v61h166v-26c0 -61 38 -82 109 -82s108 21 108 82v26h165v-61c0 -79 -22 -132 -65 -160s-113 -42 -208 -42zM737 1270v-226h-249v224c0 71 -29 106 -87 106s-87 -35 -87 -106v-966c0 -71 31 -106 92 -106
c63 0 94 35 94 106v377h-106v203h343v-582c0 -114 -29 -195 -88 -243s-141 -72 -248 -72c-224 0 -336 105 -336 315v970c0 211 112 316 336 315c107 0 189 -24 248 -72c59 -49 88 -130 88 -243z" />
    <glyph glyph-name="gbreve" unicode="&#x11f;" 
d="M401 1657c-97 0 -167 14 -210 42s-65 81 -65 160v61h166v-26c0 -61 38 -82 109 -82s108 21 108 82v26h165v-61c0 -79 -22 -132 -65 -160s-113 -42 -208 -42zM737 1270v-226h-249v224c0 71 -29 106 -87 106s-87 -35 -87 -106v-966c0 -71 31 -106 92 -106
c63 0 94 35 94 106v377h-106v203h343v-582c0 -114 -29 -195 -88 -243s-141 -72 -248 -72c-224 0 -336 105 -336 315v970c0 211 112 316 336 315c107 0 189 -24 248 -72c59 -49 88 -130 88 -243z" />
    <glyph glyph-name="Gdotaccent" unicode="&#x120;" 
d="M480 1710c-64 -67 -196 -18 -190 77c0 59 50 106 111 106s111 -47 111 -106c0 -31 -11 -56 -32 -77zM737 1270v-226h-249v224c0 71 -29 106 -87 106s-87 -35 -87 -106v-966c0 -71 31 -106 92 -106c63 0 94 35 94 106v377h-106v203h343v-582c0 -114 -29 -195 -88 -243
s-141 -72 -248 -72c-224 0 -336 105 -336 315v970c0 211 112 316 336 315c107 0 189 -24 248 -72c59 -49 88 -130 88 -243z" />
    <glyph glyph-name="gdotaccent" unicode="&#x121;" 
d="M480 1710c-64 -67 -196 -18 -190 77c0 59 50 106 111 106s111 -47 111 -106c0 -31 -11 -56 -32 -77zM737 1270v-226h-249v224c0 71 -29 106 -87 106s-87 -35 -87 -106v-966c0 -71 31 -106 92 -106c63 0 94 35 94 106v377h-106v203h343v-582c0 -114 -29 -195 -88 -243
s-141 -72 -248 -72c-224 0 -336 105 -336 315v970c0 211 112 316 336 315c107 0 189 -24 248 -72c59 -49 88 -130 88 -243z" />
    <glyph glyph-name="uni0122" unicode="&#x122;" 
d="M737 1270v-226h-249v224c0 71 -29 106 -87 106s-87 -35 -87 -106v-966c0 -71 31 -106 92 -106c63 0 94 35 94 106v377h-106v203h343v-582c0 -114 -29 -195 -88 -243s-141 -72 -248 -72c-224 0 -336 105 -336 315v970c0 211 112 316 336 315c107 0 189 -24 248 -72
c59 -49 88 -130 88 -243zM437 -613h-143c25 97 38 198 37 304h-80v195h263v-77c0 -181 -26 -321 -77 -422z" />
    <glyph glyph-name="uni0123" unicode="&#x123;" 
d="M737 1270v-226h-249v224c0 71 -29 106 -87 106s-87 -35 -87 -106v-966c0 -71 31 -106 92 -106c63 0 94 35 94 106v377h-106v203h343v-582c0 -114 -29 -195 -88 -243s-141 -72 -248 -72c-224 0 -336 105 -336 315v970c0 211 112 316 336 315c107 0 189 -24 248 -72
c59 -49 88 -130 88 -243zM437 -613h-143c25 97 38 198 37 304h-80v195h263v-77c0 -181 -26 -321 -77 -422z" />
    <glyph glyph-name="Hbar" unicode="&#x126;" horiz-adv-x="805" 
d="M490 1251v319h251v-1570h-251v666h-174v-666h-251v1570h251v-319h174zM316 1046v-169h174v169h-174z" />
    <glyph glyph-name="hbar" unicode="&#x127;" horiz-adv-x="805" 
d="M490 1251v319h251v-1570h-251v666h-174v-666h-251v1570h251v-319h174zM316 1046v-169h174v169h-174z" />
    <glyph glyph-name="Imacron" unicode="&#x12a;" horiz-adv-x="380" 
d="M440 1673h-498v201h498v-201zM316 0h-251v1570h251v-1570z" />
    <glyph glyph-name="imacron" unicode="&#x12b;" horiz-adv-x="380" 
d="M440 1673h-498v201h498v-201zM316 0h-251v1570h251v-1570z" />
    <glyph glyph-name="Iogonek" unicode="&#x12e;" horiz-adv-x="380" 
d="M65 121v1449h251v-1570h-89c-71 0 -104 -41 -104 -97c0 -66 35 -99 104 -99h89l-22 -169h-72c-207 0 -321 101 -321 268c0 109 55 182 164 218z" />
    <glyph glyph-name="iogonek" unicode="&#x12f;" horiz-adv-x="380" 
d="M65 121v1449h251v-1570h-89c-71 0 -104 -41 -104 -97c0 -66 35 -99 104 -99h89l-22 -169h-72c-207 0 -321 101 -321 268c0 109 55 182 164 218z" />
    <glyph glyph-name="Idot" unicode="&#x130;" horiz-adv-x="380" 
d="M270 1710c-64 -67 -196 -18 -190 77c0 59 50 106 111 106s111 -47 111 -106c0 -31 -11 -56 -32 -77zM316 0h-251v1570h251v-1570z" />
    <glyph glyph-name="dotlessi" unicode="&#x131;" horiz-adv-x="380" 
d="M316 0h-251v1570h251v-1570z" />
    <glyph glyph-name="IJ" unicode="&#x132;" horiz-adv-x="1189" 
d="M316 0h-251v1570h251v-1570zM452 526h251v-224c0 -71 29 -106 86 -106s85 35 85 106v1268h251v-1270c0 -114 -29 -195 -88 -243s-142 -72 -249 -72c-224 0 -336 105 -336 315v226z" />
    <glyph glyph-name="uni0136" unicode="&#x136;" horiz-adv-x="841" 
d="M790 1570l-211 -723l227 -847h-239l-173 686l-80 -253v-433h-249v1570h249v-703h12l215 703h249zM358 -309h-80v195h263v-77c0 -181 -26 -321 -77 -422h-143c25 97 38 198 37 304z" />
    <glyph glyph-name="uni0137" unicode="&#x137;" horiz-adv-x="841" 
d="M790 1570l-211 -723l227 -847h-239l-173 686l-80 -253v-433h-249v1570h249v-703h12l215 703h249zM358 -309h-80v195h263v-77c0 -181 -26 -321 -77 -422h-143c25 97 38 198 37 304z" />
    <glyph glyph-name="Lacute" unicode="&#x139;" horiz-adv-x="643" 
d="M174 1923h222l-89 -268h-222zM316 1570v-1358h266v-212h-517v1570h251z" />
    <glyph glyph-name="lacute" unicode="&#x13a;" horiz-adv-x="643" 
d="M174 1923h222l-89 -268h-222zM316 1570v-1358h266v-212h-517v1570h251z" />
    <glyph glyph-name="uni013B" unicode="&#x13b;" horiz-adv-x="643" 
d="M316 1570v-1358h266v-212h-517v1570h251zM280 -309h-80v195h263v-77c0 -181 -26 -321 -77 -422h-144c25 97 38 198 38 304z" />
    <glyph glyph-name="uni013C" unicode="&#x13c;" horiz-adv-x="643" 
d="M316 1570v-1358h266v-212h-517v1570h251zM280 -309h-80v195h263v-77c0 -181 -26 -321 -77 -422h-144c25 97 38 198 38 304z" />
    <glyph glyph-name="Lcaron" unicode="&#x13d;" horiz-adv-x="797" 
d="M65 1570h251v-1358h266v-212h-517v1570zM403 1359v211h286v-83c0 -200 -28 -353 -83 -460h-155c29 111 42 221 39 332h-87z" />
    <glyph glyph-name="lcaron" unicode="&#x13e;" horiz-adv-x="797" 
d="M65 1570h251v-1358h266v-212h-517v1570zM403 1359v211h286v-83c0 -200 -28 -353 -83 -460h-155c29 111 42 221 39 332h-87z" />
    <glyph glyph-name="Ldot" unicode="&#x13f;" horiz-adv-x="791" 
d="M65 1570h251v-1358h266v-212h-517v1570zM572 1022c39 0 71 -13 98 -40s40 -58 40 -95s-13 -69 -40 -96s-59 -40 -98 -40c-37 0 -69 13 -96 40s-41 59 -41 96s14 68 41 95s59 40 96 40z" />
    <glyph glyph-name="Lslash" unicode="&#x141;" horiz-adv-x="680" 
d="M353 662v-450h267v-212h-518v447l-102 -87v229l102 87v894h251v-679l220 188v-229z" />
    <glyph glyph-name="lslash" unicode="&#x142;" horiz-adv-x="680" 
d="M353 662v-450h267v-212h-518v447l-102 -87v229l102 87v894h251v-679l220 188v-229z" />
    <glyph glyph-name="Nacute" unicode="&#x143;" horiz-adv-x="909" 
d="M568 1655h-222l89 268h222zM297 0h-232v1570h324l215 -1160h16l-7 187v973h232v-1570h-323l-215 1161h-17l7 -188v-973z" />
    <glyph glyph-name="nacute" unicode="&#x144;" horiz-adv-x="909" 
d="M568 1655h-222l89 268h222zM297 0h-232v1570h324l215 -1160h16l-7 187v973h232v-1570h-323l-215 1161h-17l7 -188v-973z" />
    <glyph glyph-name="uni0145" unicode="&#x145;" horiz-adv-x="909" 
d="M297 0h-232v1570h324l215 -1160h16l-7 187v973h232v-1570h-323l-215 1161h-17l7 -188v-973zM492 -613h-144c25 97 38 198 38 304h-81v195h263v-77c0 -181 -25 -321 -76 -422z" />
    <glyph glyph-name="uni0146" unicode="&#x146;" horiz-adv-x="909" 
d="M297 0h-232v1570h324l215 -1160h16l-7 187v973h232v-1570h-323l-215 1161h-17l7 -188v-973zM492 -613h-144c25 97 38 198 38 304h-81v195h263v-77c0 -181 -25 -321 -76 -422z" />
    <glyph glyph-name="Ncaron" unicode="&#x147;" horiz-adv-x="909" 
d="M316 1655l-115 267h185l59 -137h21l61 137h183l-113 -267h-281zM297 0h-232v1570h324l215 -1160h16l-7 187v973h232v-1570h-323l-215 1161h-17l7 -188v-973z" />
    <glyph glyph-name="ncaron" unicode="&#x148;" horiz-adv-x="909" 
d="M316 1655l-115 267h185l59 -137h21l61 137h183l-113 -267h-281zM297 0h-232v1570h324l215 -1160h16l-7 187v973h232v-1570h-323l-215 1161h-17l7 -188v-973z" />
    <glyph glyph-name="Eng" unicode="&#x14a;" horiz-adv-x="925" 
d="M845 1570v-1483h15v-121c0 -118 -31 -198 -92 -239s-160 -62 -295 -62v195c93 0 135 25 135 108v32h-86l-215 1161h-17l7 -188v-973h-232v1570h324l215 -1160h16l-7 187v973h232z" />
    <glyph glyph-name="eng" unicode="&#x14b;" horiz-adv-x="925" 
d="M845 1570v-1483h15v-121c0 -118 -31 -198 -92 -239s-160 -62 -295 -62v195c93 0 135 25 135 108v32h-86l-215 1161h-17l7 -188v-973h-232v1570h324l215 -1160h16l-7 187v973h232z" />
    <glyph glyph-name="Omacron" unicode="&#x14c;" 
d="M650 1673h-498v201h498v-201zM401 1585c107 0 189 -24 248 -72c59 -49 88 -130 88 -243v-970c0 -114 -29 -195 -88 -243s-141 -72 -248 -72c-224 0 -336 105 -336 315v970c0 210 112 315 336 315zM486 302v966c0 71 -28 106 -85 106s-85 -35 -85 -106v-966
c0 -71 28 -106 85 -106s85 35 85 106z" />
    <glyph glyph-name="omacron" unicode="&#x14d;" 
d="M650 1673h-498v201h498v-201zM401 1585c107 0 189 -24 248 -72c59 -49 88 -130 88 -243v-970c0 -114 -29 -195 -88 -243s-141 -72 -248 -72c-224 0 -336 105 -336 315v970c0 210 112 315 336 315zM486 302v966c0 71 -28 106 -85 106s-85 -35 -85 -106v-966
c0 -71 28 -106 85 -106s85 35 85 106z" />
    <glyph glyph-name="Ohungarumlaut" unicode="&#x150;" 
d="M331 1666h-222l89 268h222zM667 1666h-222l89 268h222zM401 1585c107 0 189 -24 248 -72c59 -49 88 -130 88 -243v-970c0 -114 -29 -195 -88 -243s-141 -72 -248 -72c-224 0 -336 105 -336 315v970c0 210 112 315 336 315zM486 302v966c0 71 -28 106 -85 106
s-85 -35 -85 -106v-966c0 -71 28 -106 85 -106s85 35 85 106z" />
    <glyph glyph-name="ohungarumlaut" unicode="&#x151;" 
d="M331 1666h-222l89 268h222zM667 1666h-222l89 268h222zM401 1585c107 0 189 -24 248 -72c59 -49 88 -130 88 -243v-970c0 -114 -29 -195 -88 -243s-141 -72 -248 -72c-224 0 -336 105 -336 315v970c0 210 112 315 336 315zM486 302v966c0 71 -28 106 -85 106
s-85 -35 -85 -106v-966c0 -71 28 -106 85 -106s85 35 85 106z" />
    <glyph glyph-name="OE" unicode="&#x152;" horiz-adv-x="1042" 
d="M978 1359h-241v-468h236v-208h-236v-471h241v-212h-442c-39 -10 -84 -15 -135 -15c-224 0 -336 105 -336 315v970c0 211 112 316 336 315c51 0 96 -5 135 -15h442v-211zM316 1268v-966c0 -71 28 -106 85 -106s85 35 85 106v966c0 71 -28 106 -85 106s-85 -35 -85 -106z
" />
    <glyph glyph-name="oe" unicode="&#x153;" horiz-adv-x="1042" 
d="M978 1359h-241v-468h236v-208h-236v-471h241v-212h-442c-39 -10 -84 -15 -135 -15c-224 0 -336 105 -336 315v970c0 211 112 316 336 315c51 0 96 -5 135 -15h442v-211zM316 1268v-966c0 -71 28 -106 85 -106s85 35 85 106v966c0 71 -28 106 -85 106s-85 -35 -85 -106z
" />
    <glyph glyph-name="Racute" unicode="&#x154;" horiz-adv-x="791" 
d="M387 1923h222l-88 -268h-222zM628 539l133 -539h-227l-112 480h-106v-480h-251v1570h384c114 0 190 -23 227 -70s56 -129 56 -246v-474c0 -113 -35 -193 -104 -241zM316 1360v-688l100 2c52 4 70 33 70 106v474c0 81 -23 106 -95 106h-75z" />
    <glyph glyph-name="racute" unicode="&#x155;" horiz-adv-x="791" 
d="M387 1923h222l-88 -268h-222zM628 539l133 -539h-227l-112 480h-106v-480h-251v1570h384c114 0 190 -23 227 -70s56 -129 56 -246v-474c0 -113 -35 -193 -104 -241zM316 1360v-688l100 2c52 4 70 33 70 106v474c0 81 -23 106 -95 106h-75z" />
    <glyph glyph-name="uni0156" unicode="&#x156;" horiz-adv-x="791" 
d="M628 539l133 -539h-227l-112 480h-106v-480h-251v1570h384c114 0 190 -23 227 -70s56 -129 56 -246v-474c0 -113 -35 -193 -104 -241zM316 1360v-688l100 2c52 4 70 33 70 106v474c0 81 -23 106 -95 106h-75zM338 -309h-80v195h263v-77c0 -181 -26 -321 -77 -422h-144
c25 97 38 198 38 304z" />
    <glyph glyph-name="uni0157" unicode="&#x157;" horiz-adv-x="791" 
d="M628 539l133 -539h-227l-112 480h-106v-480h-251v1570h384c114 0 190 -23 227 -70s56 -129 56 -246v-474c0 -113 -35 -193 -104 -241zM316 1360v-688l100 2c52 4 70 33 70 106v474c0 81 -23 106 -95 106h-75zM338 -309h-80v195h263v-77c0 -181 -26 -321 -77 -422h-144
c25 97 38 198 38 304z" />
    <glyph glyph-name="Rcaron" unicode="&#x158;" horiz-adv-x="791" 
d="M662 1922l-112 -267h-282l-114 267h184l60 -137h20l62 137h182zM628 539l133 -539h-227l-112 480h-106v-480h-251v1570h384c114 0 190 -23 227 -70s56 -129 56 -246v-474c0 -113 -35 -193 -104 -241zM316 1360v-688l100 2c52 4 70 33 70 106v474c0 81 -23 106 -95 106
h-75z" />
    <glyph glyph-name="rcaron" unicode="&#x159;" horiz-adv-x="791" 
d="M662 1922l-112 -267h-282l-114 267h184l60 -137h20l62 137h182zM628 539l133 -539h-227l-112 480h-106v-480h-251v1570h384c114 0 190 -23 227 -70s56 -129 56 -246v-474c0 -113 -35 -193 -104 -241zM316 1360v-688l100 2c52 4 70 33 70 106v474c0 81 -23 106 -95 106
h-75z" />
    <glyph glyph-name="Sacute" unicode="&#x15a;" horiz-adv-x="793" 
d="M514 1655h-222l89 268h221zM727 1268v-225h-241v223c0 71 -28 106 -85 106s-85 -35 -85 -106v-193c0 -73 46 -132 107 -166c31 -17 64 -38 101 -62s70 -48 101 -72c31 -25 56 -60 77 -105c20 -46 30 -99 30 -158v-208c0 -209 -110 -314 -331 -314
c-212 0 -329 89 -329 314v225h240v-223c0 -71 29 -106 87 -106c57 0 85 35 86 106v193c0 73 -47 133 -108 167c-31 17 -64 37 -99 61c-36 24 -69 48 -100 73s-57 60 -77 105c-21 45 -31 98 -31 157v208c0 209 110 314 329 314c212 0 328 -89 328 -314z" />
    <glyph glyph-name="sacute" unicode="&#x15b;" horiz-adv-x="793" 
d="M514 1655h-222l89 268h221zM727 1268v-225h-241v223c0 71 -28 106 -85 106s-85 -35 -85 -106v-193c0 -73 46 -132 107 -166c31 -17 64 -38 101 -62s70 -48 101 -72c31 -25 56 -60 77 -105c20 -46 30 -99 30 -158v-208c0 -209 -110 -314 -331 -314
c-212 0 -329 89 -329 314v225h240v-223c0 -71 29 -106 87 -106c57 0 85 35 86 106v193c0 73 -47 133 -108 167c-31 17 -64 37 -99 61c-36 24 -69 48 -100 73s-57 60 -77 105c-21 45 -31 98 -31 157v208c0 209 110 314 329 314c212 0 328 -89 328 -314z" />
    <glyph glyph-name="Scedilla" unicode="&#x15e;" horiz-adv-x="793" 
d="M316 1266v-193c0 -73 46 -132 107 -166c31 -17 64 -38 101 -62s70 -48 101 -72c31 -25 56 -60 77 -105c20 -46 30 -99 30 -158v-208c0 -181 -80 -283 -239 -307l-78 -72c43 -6 81 -22 113 -48c31 -26 47 -65 47 -116c0 -84 -27 -139 -75 -163c-49 -24 -96 -31 -165 -31
h-60v116h60c57 0 85 26 85 78c0 50 -30 75 -89 75h-56v87l75 69c-185 15 -278 119 -278 312v225h240v-223c0 -71 29 -106 87 -106c57 0 85 35 86 106v193c0 73 -47 133 -108 167c-31 17 -64 37 -99 61c-36 24 -69 48 -100 73s-57 60 -77 105c-21 45 -31 98 -31 157v208
c0 209 110 314 329 314c212 0 328 -89 328 -314v-225h-241v223c0 71 -28 106 -85 106s-85 -35 -85 -106z" />
    <glyph glyph-name="scedilla" unicode="&#x15f;" horiz-adv-x="793" 
d="M316 1266v-193c0 -73 46 -132 107 -166c31 -17 64 -38 101 -62s70 -48 101 -72c31 -25 56 -60 77 -105c20 -46 30 -99 30 -158v-208c0 -181 -80 -283 -239 -307l-78 -72c43 -6 81 -22 113 -48c31 -26 47 -65 47 -116c0 -84 -27 -139 -75 -163c-49 -24 -96 -31 -165 -31
h-60v116h60c57 0 85 26 85 78c0 50 -30 75 -89 75h-56v87l75 69c-185 15 -278 119 -278 312v225h240v-223c0 -71 29 -106 87 -106c57 0 85 35 86 106v193c0 73 -47 133 -108 167c-31 17 -64 37 -99 61c-36 24 -69 48 -100 73s-57 60 -77 105c-21 45 -31 98 -31 157v208
c0 209 110 314 329 314c212 0 328 -89 328 -314v-225h-241v223c0 71 -28 106 -85 106s-85 -35 -85 -106z" />
    <glyph glyph-name="Scaron" unicode="&#x160;" horiz-adv-x="793" 
d="M261 1655l-114 267h184l60 -137h20l62 137h182l-112 -267h-282zM727 1268v-225h-241v223c0 71 -28 106 -85 106s-85 -35 -85 -106v-193c0 -73 46 -132 107 -166c31 -17 64 -38 101 -62s70 -48 101 -72c31 -25 56 -60 77 -105c20 -46 30 -99 30 -158v-208
c0 -209 -110 -314 -331 -314c-212 0 -329 89 -329 314v225h240v-223c0 -71 29 -106 87 -106c57 0 85 35 86 106v193c0 73 -47 133 -108 167c-31 17 -64 37 -99 61c-36 24 -69 48 -100 73s-57 60 -77 105c-21 45 -31 98 -31 157v208c0 209 110 314 329 314
c212 0 328 -89 328 -314z" />
    <glyph glyph-name="scaron" unicode="&#x161;" horiz-adv-x="793" 
d="M261 1655l-114 267h184l60 -137h20l62 137h182l-112 -267h-282zM727 1268v-225h-241v223c0 71 -28 106 -85 106s-85 -35 -85 -106v-193c0 -73 46 -132 107 -166c31 -17 64 -38 101 -62s70 -48 101 -72c31 -25 56 -60 77 -105c20 -46 30 -99 30 -158v-208
c0 -209 -110 -314 -331 -314c-212 0 -329 89 -329 314v225h240v-223c0 -71 29 -106 87 -106c57 0 85 35 86 106v193c0 73 -47 133 -108 167c-31 17 -64 37 -99 61c-36 24 -69 48 -100 73s-57 60 -77 105c-21 45 -31 98 -31 157v208c0 209 110 314 329 314
c212 0 328 -89 328 -314z" />
    <glyph glyph-name="uni0162" unicode="&#x162;" horiz-adv-x="754" 
d="M503 1359v-1359h-29l-83 -77c43 -6 81 -22 113 -48c31 -26 47 -65 47 -116c0 -84 -27 -139 -75 -163c-49 -24 -94 -31 -165 -31h-60v116h60c57 0 85 26 85 78c0 50 -30 75 -89 75h-56v87l85 79h-85v1359h-200v211h652v-211h-200z" />
    <glyph glyph-name="uni0163" unicode="&#x163;" horiz-adv-x="754" 
d="M503 1359v-1359h-29l-83 -77c43 -6 81 -22 113 -48c31 -26 47 -65 47 -116c0 -84 -27 -139 -75 -163c-49 -24 -94 -31 -165 -31h-60v116h60c57 0 85 26 85 78c0 50 -30 75 -89 75h-56v87l85 79h-85v1359h-200v211h652v-211h-200z" />
    <glyph glyph-name="Tcaron" unicode="&#x164;" horiz-adv-x="754" 
d="M631 1922l-112 -267h-282l-114 267h184l60 -137h20l62 137h182zM51 1570h652v-211h-200v-1359h-252v1359h-200v211z" />
    <glyph glyph-name="tcaron" unicode="&#x165;" horiz-adv-x="754" 
d="M631 1922l-112 -267h-282l-114 267h184l60 -137h20l62 137h182zM51 1570h652v-211h-200v-1359h-252v1359h-200v211z" />
    <glyph glyph-name="Tbar" unicode="&#x166;" horiz-adv-x="771" 
d="M503 985h217v-210h-217v-775h-252v775h-178v210h178v374h-200v211h652v-211h-200v-374z" />
    <glyph glyph-name="tbar" unicode="&#x167;" horiz-adv-x="771" 
d="M503 985h217v-210h-217v-775h-252v775h-178v210h178v374h-200v211h652v-211h-200v-374z" />
    <glyph glyph-name="Umacron" unicode="&#x16a;" 
d="M650 1673h-498v201h498v-201zM486 1570h251v-1270c0 -114 -29 -195 -88 -243s-141 -72 -248 -72c-224 0 -336 105 -336 315v1270h251v-1268c0 -71 28 -106 85 -106s85 35 85 106v1268z" />
    <glyph glyph-name="umacron" unicode="&#x16b;" 
d="M650 1673h-498v201h498v-201zM486 1570h251v-1270c0 -114 -29 -195 -88 -243s-141 -72 -248 -72c-224 0 -336 105 -336 315v1270h251v-1268c0 -71 28 -106 85 -106s85 35 85 106v1268z" />
    <glyph glyph-name="Ubreve" unicode="&#x16c;" 
d="M401 1657c-97 0 -167 14 -210 42s-65 81 -65 160v61h166v-26c0 -61 38 -82 109 -82s108 21 108 82v26h165v-61c0 -79 -22 -132 -65 -160s-113 -42 -208 -42zM486 1570h251v-1270c0 -114 -29 -195 -88 -243s-141 -72 -248 -72c-224 0 -336 105 -336 315v1270h251v-1268
c0 -71 28 -106 85 -106s85 35 85 106v1268z" />
    <glyph glyph-name="ubreve" unicode="&#x16d;" 
d="M408 1657c-97 0 -167 14 -210 42s-65 81 -65 160v61h166v-26c0 -61 38 -82 109 -82s107 21 107 82v26h166v-61c0 -79 -22 -132 -65 -160s-113 -42 -208 -42zM486 1570h251v-1270c0 -114 -29 -195 -88 -243s-141 -72 -248 -72c-224 0 -336 105 -336 315v1270h251v-1268
c0 -71 28 -106 85 -106s85 35 85 106v1268z" />
    <glyph glyph-name="Uring" unicode="&#x16e;" 
d="M401 1580c-55 0 -100 18 -135 54c-36 36 -54 81 -54 134s18 98 54 134c35 36 80 54 135 54c56 0 102 -18 137 -54s53 -81 53 -134s-18 -98 -53 -134s-81 -54 -137 -54zM401 1696c41 0 70 29 70 72c0 41 -29 72 -70 72c-39 0 -70 -31 -70 -72s31 -72 70 -72zM486 1570h251
v-1270c0 -114 -29 -195 -88 -243s-141 -72 -248 -72c-224 0 -336 105 -336 315v1270h251v-1268c0 -71 28 -106 85 -106s85 35 85 106v1268z" />
    <glyph glyph-name="uring" unicode="&#x16f;" 
d="M401 1580c-55 0 -100 18 -135 54c-36 36 -54 81 -54 134s18 98 54 134c35 36 80 54 135 54c56 0 102 -18 137 -54s53 -81 53 -134s-18 -98 -53 -134s-81 -54 -137 -54zM401 1696c41 0 70 29 70 72c0 41 -29 72 -70 72c-39 0 -70 -31 -70 -72s31 -72 70 -72zM486 1570h251
v-1270c0 -114 -29 -195 -88 -243s-141 -72 -248 -72c-224 0 -336 105 -336 315v1270h251v-1268c0 -71 28 -106 85 -106s85 35 85 106v1268z" />
    <glyph glyph-name="Uhungarumlaut" unicode="&#x170;" 
d="M331 1666h-222l89 268h222zM667 1666h-222l89 268h222zM486 1570h251v-1270c0 -114 -29 -195 -88 -243s-141 -72 -248 -72c-224 0 -336 105 -336 315v1270h251v-1268c0 -71 28 -106 85 -106s85 35 85 106v1268z" />
    <glyph glyph-name="uhungarumlaut" unicode="&#x171;" 
d="M331 1666h-222l89 268h222zM667 1666h-222l89 268h222zM486 1570h251v-1270c0 -114 -29 -195 -88 -243s-141 -72 -248 -72c-224 0 -336 105 -336 315v1270h251v-1268c0 -71 28 -106 85 -106s85 35 85 106v1268z" />
    <glyph glyph-name="Uogonek" unicode="&#x172;" 
d="M486 302v1268h251v-1270c0 -183 -84 -287 -251 -310c-64 -6 -96 -37 -95 -94c0 -61 34 -92 101 -92h92l-23 -169h-71c-101 0 -180 22 -236 67c-57 45 -85 103 -85 172c0 53 18 100 53 141c-105 45 -157 140 -157 285v1270h251v-1268c0 -71 28 -106 85 -106s85 35 85 106z
" />
    <glyph glyph-name="uogonek" unicode="&#x173;" 
d="M486 302v1268h251v-1270c0 -183 -84 -287 -251 -310c-64 -6 -96 -37 -95 -94c0 -61 34 -92 101 -92h92l-23 -169h-71c-101 0 -180 22 -236 67c-57 45 -85 103 -85 172c0 53 18 100 53 141c-105 45 -157 140 -157 285v1270h251v-1268c0 -71 28 -106 85 -106s85 35 85 106z
" />
    <glyph glyph-name="Wcircumflex" unicode="&#x174;" horiz-adv-x="1365" 
d="M613 1655h-185l115 267h281l113 -267h-183l-61 137h-21zM985 268l83 1302h244l-128 -1570h-394l-99 1300h-17l-99 -1300h-394l-128 1570h244l84 -1302h17l105 1302h359l106 -1302h17z" />
    <glyph glyph-name="wcircumflex" unicode="&#x175;" horiz-adv-x="1365" 
d="M613 1655h-185l115 267h281l113 -267h-183l-61 137h-21zM985 268l83 1302h244l-128 -1570h-394l-99 1300h-17l-99 -1300h-394l-128 1570h244l84 -1302h17l105 1302h359l106 -1302h17z" />
    <glyph glyph-name="Ycircumflex" unicode="&#x176;" horiz-adv-x="853" 
d="M437 1792h-21l-59 -137h-185l115 267h281l113 -267h-183zM433 947l139 623h240l-262 -990v-580h-246v580l-263 990h241l138 -623h13z" />
    <glyph glyph-name="ycircumflex" unicode="&#x177;" horiz-adv-x="853" 
d="M437 1792h-21l-59 -137h-185l115 267h281l113 -267h-183zM433 947l139 623h240l-262 -990v-580h-246v580l-263 990h241l138 -623h13z" />
    <glyph glyph-name="Ydieresis" unicode="&#x178;" horiz-adv-x="853" 
d="M340 1710c-41 -41 -110 -41 -150 0c-21 21 -31 46 -31 77c0 59 46 106 106 106c59 0 105 -47 105 -106c0 -31 -10 -56 -30 -77zM666 1710c-41 -41 -110 -41 -150 0c-21 21 -31 46 -31 77c0 59 46 106 106 106c59 0 105 -47 105 -106c0 -31 -10 -56 -30 -77zM433 947
l139 623h240l-262 -990v-580h-246v580l-263 990h241l138 -623h13z" />
    <glyph glyph-name="Zacute" unicode="&#x179;" horiz-adv-x="738" 
d="M481 1655h-222l89 268h222zM667 0h-606v212l372 1128v19h-354v211h599v-211l-383 -1129v-18h372v-212z" />
    <glyph glyph-name="zacute" unicode="&#x17a;" horiz-adv-x="738" 
d="M481 1655h-222l89 268h222zM667 0h-606v212l372 1128v19h-354v211h599v-211l-383 -1129v-18h372v-212z" />
    <glyph glyph-name="Zdotaccent" unicode="&#x17b;" horiz-adv-x="738" 
d="M448 1710c-64 -67 -196 -18 -190 77c0 59 50 106 111 106s111 -47 111 -106c0 -31 -11 -56 -32 -77zM667 0h-606v212l372 1128v19h-354v211h599v-211l-383 -1129v-18h372v-212z" />
    <glyph glyph-name="zdotaccent" unicode="&#x17c;" horiz-adv-x="738" 
d="M448 1710c-64 -67 -196 -18 -190 77c0 59 50 106 111 106s111 -47 111 -106c0 -31 -11 -56 -32 -77zM667 0h-606v212l372 1128v19h-354v211h599v-211l-383 -1129v-18h372v-212z" />
    <glyph glyph-name="Zcaron" unicode="&#x17d;" horiz-adv-x="738" 
d="M229 1655l-115 267h185l59 -137h21l61 137h183l-113 -267h-281zM667 0h-606v212l372 1128v19h-354v211h599v-211l-383 -1129v-18h372v-212z" />
    <glyph glyph-name="zcaron" unicode="&#x17e;" horiz-adv-x="738" 
d="M229 1655l-115 267h185l59 -137h21l61 137h183l-113 -267h-281zM667 0h-606v212l372 1128v19h-354v211h599v-211l-383 -1129v-18h372v-212z" />
    <glyph glyph-name="florin" unicode="&#x192;" horiz-adv-x="1227" 
d="M1166 1266v-225h-253v224c0 71 -28 106 -85 106c-57 -1 -86 -36 -86 -106v-381h224v-198h-224v-386c0 -211 -112 -316 -336 -316c-224 1 -336 106 -336 316v231h251v-229c0 -71 29 -106 86 -106s85 35 85 106v384h-222v198h222v382c0 211 112 316 336 316
c107 0 190 -24 249 -72c59 -49 89 -130 89 -244z" />
    <glyph glyph-name="uni01CD" unicode="&#x1cd;" horiz-adv-x="863" 
d="M684 1922l-112 -267h-282l-114 267h184l60 -137h20l62 137h182zM819 0h-240l-29 295h-236l-29 -295h-241l169 1570h437zM416 1343l-81 -838h194l-82 838h-31z" />
    <glyph glyph-name="uni01CE" unicode="&#x1ce;" horiz-adv-x="863" 
d="M684 1922l-112 -267h-282l-114 267h184l60 -137h20l62 137h182zM819 0h-240l-29 295h-236l-29 -295h-241l169 1570h437zM416 1343l-81 -838h194l-82 838h-31z" />
    <glyph glyph-name="uni01CF" unicode="&#x1cf;" horiz-adv-x="380" 
d="M51 1655l-114 267h184l60 -137h20l62 137h182l-112 -267h-282zM316 0h-251v1570h251v-1570z" />
    <glyph glyph-name="uni01D0" unicode="&#x1d0;" horiz-adv-x="380" 
d="M51 1655l-114 267h184l60 -137h20l62 137h182l-112 -267h-282zM316 0h-251v1570h251v-1570z" />
    <glyph glyph-name="uni01D1" unicode="&#x1d1;" 
d="M261 1655l-114 267h184l60 -137h20l62 137h182l-112 -267h-282zM401 1585c107 0 189 -24 248 -72c59 -49 88 -130 88 -243v-970c0 -114 -29 -195 -88 -243s-141 -72 -248 -72c-224 0 -336 105 -336 315v970c0 210 112 315 336 315zM486 302v966c0 71 -28 106 -85 106
s-85 -35 -85 -106v-966c0 -71 28 -106 85 -106s85 35 85 106z" />
    <glyph glyph-name="uni01D2" unicode="&#x1d2;" 
d="M261 1655l-114 267h184l60 -137h20l62 137h182l-112 -267h-282zM401 1585c107 0 189 -24 248 -72c59 -49 88 -130 88 -243v-970c0 -114 -29 -195 -88 -243s-141 -72 -248 -72c-224 0 -336 105 -336 315v970c0 210 112 315 336 315zM486 302v966c0 71 -28 106 -85 106
s-85 -35 -85 -106v-966c0 -71 28 -106 85 -106s85 35 85 106z" />
    <glyph glyph-name="uni01D3" unicode="&#x1d3;" 
d="M261 1655l-114 267h184l60 -137h20l62 137h182l-112 -267h-282zM486 1570h251v-1270c0 -114 -29 -195 -88 -243s-141 -72 -248 -72c-224 0 -336 105 -336 315v1270h251v-1268c0 -71 28 -106 85 -106s85 35 85 106v1268z" />
    <glyph glyph-name="uni01D4" unicode="&#x1d4;" 
d="M261 1655l-114 267h184l60 -137h20l62 137h182l-112 -267h-282zM486 1570h251v-1270c0 -114 -29 -195 -88 -243s-141 -72 -248 -72c-224 0 -336 105 -336 315v1270h251v-1268c0 -71 28 -106 85 -106s85 35 85 106v1268z" />
    <glyph glyph-name="uni01EA" unicode="&#x1ea;" 
d="M401 1585c107 0 189 -24 248 -72c59 -49 88 -130 88 -243v-970c0 -174 -74 -276 -222 -305v-9c-68 -10 -102 -41 -102 -94c0 -52 34 -88 101 -88h94l-24 -169h-72c-101 0 -180 22 -236 66c-57 45 -85 101 -85 169c0 55 19 100 56 135c-122 39 -183 137 -182 295v970
c0 210 112 315 336 315zM316 1268v-966c0 -71 28 -106 85 -106s85 35 85 106v966c0 71 -28 106 -85 106s-85 -35 -85 -106z" />
    <glyph glyph-name="uni0218" unicode="&#x218;" horiz-adv-x="793" 
d="M727 1268v-225h-241v223c0 71 -28 106 -85 106s-85 -35 -85 -106v-193c0 -73 46 -132 107 -166c31 -17 64 -38 101 -62s70 -48 101 -72c31 -25 56 -60 77 -105c20 -46 30 -99 30 -158v-208c0 -209 -110 -314 -331 -314c-212 0 -329 89 -329 314v225h240v-223
c0 -71 29 -106 87 -106c57 0 85 35 86 106v193c0 73 -47 133 -108 167c-31 17 -64 37 -99 61c-36 24 -69 48 -100 73s-57 60 -77 105c-21 45 -31 98 -31 157v208c0 209 110 314 329 314c212 0 328 -89 328 -314zM437 -613h-143c25 97 38 198 37 304h-80v195h263v-77
c0 -181 -26 -321 -77 -422z" />
    <glyph glyph-name="uni0219" unicode="&#x219;" horiz-adv-x="793" 
d="M727 1268v-225h-241v223c0 71 -28 106 -85 106s-85 -35 -85 -106v-193c0 -73 46 -132 107 -166c31 -17 64 -38 101 -62s70 -48 101 -72c31 -25 56 -60 77 -105c20 -46 30 -99 30 -158v-208c0 -209 -110 -314 -331 -314c-212 0 -329 89 -329 314v225h240v-223
c0 -71 29 -106 87 -106c57 0 85 35 86 106v193c0 73 -47 133 -108 167c-31 17 -64 37 -99 61c-36 24 -69 48 -100 73s-57 60 -77 105c-21 45 -31 98 -31 157v208c0 209 110 314 329 314c212 0 328 -89 328 -314zM437 -613h-143c25 97 38 198 37 304h-80v195h263v-77
c0 -181 -26 -321 -77 -422z" />
    <glyph glyph-name="uni021A" unicode="&#x21a;" horiz-adv-x="754" 
d="M51 1570h652v-211h-200v-1359h-252v1359h-200v211zM307 -309h-80v195h263v-77c0 -181 -26 -321 -77 -422h-143c25 97 38 198 37 304z" />
    <glyph glyph-name="uni021B" unicode="&#x21b;" horiz-adv-x="754" 
d="M51 1570h652v-211h-200v-1359h-252v1359h-200v211zM307 -309h-80v195h263v-77c0 -181 -26 -321 -77 -422h-143c25 97 38 198 37 304z" />
    <glyph glyph-name="circumflex" unicode="&#x2c6;" horiz-adv-x="508" 
d="M184 1161h-184l114 266h282l113 -266h-183l-61 136h-21z" />
    <glyph glyph-name="caron" unicode="&#x2c7;" horiz-adv-x="508" 
d="M114 1161l-114 266h184l60 -137h21l61 137h183l-113 -266h-282z" />
    <glyph glyph-name="breve" unicode="&#x2d8;" horiz-adv-x="547" 
d="M275 1162c-97 0 -167 14 -210 42s-65 81 -65 160v61h166v-26c0 -61 38 -81 109 -81s107 20 107 81v26h166v-61c0 -79 -22 -132 -65 -160s-113 -42 -208 -42z" />
    <glyph glyph-name="dotaccent" unicode="&#x2d9;" horiz-adv-x="221" 
d="M190 1215c-64 -67 -196 -18 -190 77c0 59 50 106 111 106s111 -47 111 -106c0 -31 -11 -56 -32 -77z" />
    <glyph glyph-name="ring" unicode="&#x2da;" horiz-adv-x="378" 
d="M189 1085c-55 0 -100 18 -135 54c-36 36 -54 81 -54 134s18 98 54 134s81 54 135 54c56 0 102 -18 137 -54s53 -81 53 -134s-18 -98 -53 -134s-81 -54 -137 -54zM189 1201c41 0 70 29 70 72c0 41 -29 72 -70 72c-39 0 -70 -31 -70 -72s31 -72 70 -72z" />
    <glyph glyph-name="ogonek" unicode="&#x2db;" horiz-adv-x="414" 
d="M415 143v-143h-89c-71 0 -104 -41 -104 -97c0 -66 35 -99 104 -99h89l-22 -169h-72c-207 0 -321 101 -321 268c0 157 121 240 321 240h94z" />
    <glyph glyph-name="tilde" unicode="&#x2dc;" horiz-adv-x="643" 
d="M451 1162c-68 0 -122 31 -146 60s-62 60 -105 60c-51 0 -86 -30 -87 -82h-113c-3 145 71 217 191 217c71 0 124 -31 148 -60s61 -60 105 -60c51 0 84 30 87 82h112c2 -145 -62 -217 -192 -217z" />
    <glyph glyph-name="hungarumlaut" unicode="&#x2dd;" horiz-adv-x="646" 
d="M222 1161h-222l89 267h222zM558 1161h-222l89 267h222z" />
    <glyph glyph-name="uni0326" unicode="&#x326;" horiz-adv-x="0" 
d="M-108 -613h-143c25 97 38 198 38 304h-81v195h263v-77c0 -181 -26 -321 -77 -422z" />
    <glyph glyph-name="uni0394" unicode="&#x394;" horiz-adv-x="866" 
d="M213 1570h437l169 -1570h-775zM416 1343l-109 -1118h249l-109 1118h-31z" />
    <glyph glyph-name="uni03A9" unicode="&#x3a9;" horiz-adv-x="1059" 
d="M881 1263v-1038h128v-225h-381v1261c0 73 -32 109 -97 109c-66 0 -99 -36 -99 -109v-1261h-381v225h128v1038c0 119 30 204 91 254c60 49 147 74 261 74c113 0 200 -25 260 -74c60 -50 90 -135 90 -254z" />
    <glyph glyph-name="uni03BC" unicode="&#x3bc;" 
d="M486 302v1268h251v-1270c0 -114 -29 -195 -88 -243s-141 -72 -248 -72c-27 0 -53 2 -77 5v-246h-252v471c-5 23 -7 51 -7 85v1270h259v-1324c13 -33 38 -49 77 -50c57 0 85 35 85 106z" />
    <glyph glyph-name="pi" unicode="&#x3c0;" horiz-adv-x="1177" 
d="M1109 1570v-225h-164v-990c0 -100 44 -145 147 -145l-44 -220c-118 0 -207 24 -266 72c-59 47 -89 131 -89 250v1033h-212v-1345h-252v1345h-164v225h1044z" />
    <glyph glyph-name="Wgrave" unicode="&#x1e80;" horiz-adv-x="1365" 
d="M707 1923l88 -268h-222l-88 268h222zM985 268l83 1302h244l-128 -1570h-394l-99 1300h-17l-99 -1300h-394l-128 1570h244l84 -1302h17l105 1302h359l106 -1302h17z" />
    <glyph glyph-name="wgrave" unicode="&#x1e81;" horiz-adv-x="1365" 
d="M707 1923l88 -268h-222l-88 268h222zM985 268l83 1302h244l-128 -1570h-394l-99 1300h-17l-99 -1300h-394l-128 1570h244l84 -1302h17l105 1302h359l106 -1302h17z" />
    <glyph glyph-name="Wacute" unicode="&#x1e82;" horiz-adv-x="1365" 
d="M795 1655h-222l89 268h222zM985 268l83 1302h244l-128 -1570h-394l-99 1300h-17l-99 -1300h-394l-128 1570h244l84 -1302h17l105 1302h359l106 -1302h17z" />
    <glyph glyph-name="wacute" unicode="&#x1e83;" horiz-adv-x="1365" 
d="M795 1655h-222l89 268h222zM985 268l83 1302h244l-128 -1570h-394l-99 1300h-17l-99 -1300h-394l-128 1570h244l84 -1302h17l105 1302h359l106 -1302h17z" />
    <glyph glyph-name="Wdieresis" unicode="&#x1e84;" horiz-adv-x="1365" 
d="M596 1710c-41 -41 -110 -41 -150 0c-21 21 -31 46 -31 77c0 59 46 106 106 106c59 0 105 -47 105 -106c0 -31 -10 -56 -30 -77zM922 1710c-41 -41 -110 -41 -150 0c-21 21 -31 46 -31 77c0 59 46 106 106 106c59 0 105 -47 105 -106c0 -31 -10 -56 -30 -77zM985 268
l83 1302h244l-128 -1570h-394l-99 1300h-17l-99 -1300h-394l-128 1570h244l84 -1302h17l105 1302h359l106 -1302h17z" />
    <glyph glyph-name="wdieresis" unicode="&#x1e85;" horiz-adv-x="1365" 
d="M596 1710c-41 -41 -110 -41 -150 0c-21 21 -31 46 -31 77c0 59 46 106 106 106c59 0 105 -47 105 -106c0 -31 -10 -56 -30 -77zM922 1710c-41 -41 -110 -41 -150 0c-21 21 -31 46 -31 77c0 59 46 106 106 106c59 0 105 -47 105 -106c0 -31 -10 -56 -30 -77zM985 268
l83 1302h244l-128 -1570h-394l-99 1300h-17l-99 -1300h-394l-128 1570h244l84 -1302h17l105 1302h359l106 -1302h17z" />
    <glyph glyph-name="uni1E9E" unicode="&#x1e9e;" horiz-adv-x="877" 
d="M809 1570l-201 -655c116 -32 174 -129 174 -290v-340c0 -108 -22 -182 -66 -223s-119 -62 -224 -62h-123v198h49c77 0 113 35 113 128v261c0 103 -37 145 -116 145h-46v196l134 444h-187v-1372h-251v1570h744z" />
    <glyph glyph-name="Ygrave" unicode="&#x1ef2;" horiz-adv-x="853" 
d="M451 1923l88 -268h-222l-88 268h222zM433 947l139 623h240l-262 -990v-580h-246v580l-263 990h241l138 -623h13z" />
    <glyph glyph-name="ygrave" unicode="&#x1ef3;" horiz-adv-x="853" 
d="M451 1923l88 -268h-222l-88 268h222zM433 947l139 623h240l-262 -990v-580h-246v580l-263 990h241l138 -623h13z" />
    <glyph glyph-name="endash" unicode="&#x2013;" horiz-adv-x="1380" 
d="M1316 672h-1251v226h1251v-226z" />
    <glyph glyph-name="emdash" unicode="&#x2014;" horiz-adv-x="1529" 
d="M1464 672h-1399v226h1399v-226z" />
    <glyph glyph-name="quoteleft" unicode="&#x2018;" horiz-adv-x="418" 
d="M152 1570h145c-32 -187 -44 -348 -36 -485h92v-216h-288v68c0 243 29 454 87 633z" />
    <glyph glyph-name="quoteright" unicode="&#x2019;" horiz-adv-x="418" 
d="M266 869h-145c32 187 44 348 36 484h-92v217h288v-68c0 -243 -29 -454 -87 -633z" />
    <glyph glyph-name="quotesinglbase" unicode="&#x201a;" horiz-adv-x="416" 
d="M268 -331h-155c29 111 42 221 39 331h-87v212h287v-84c0 -200 -28 -353 -84 -459z" />
    <glyph glyph-name="quotedblleft" unicode="&#x201c;" horiz-adv-x="762" 
d="M152 1570h145c-32 -187 -44 -348 -36 -485h92v-216h-288v68c0 243 29 454 87 633zM497 1570h145c-32 -187 -44 -348 -36 -485h92v-216h-288v68c0 243 29 454 87 633z" />
    <glyph glyph-name="quotedblright" unicode="&#x201d;" horiz-adv-x="762" 
d="M266 869h-145c32 187 44 348 36 484h-92v217h288v-68c0 -243 -29 -454 -87 -633zM611 869h-145c32 187 44 348 36 484h-92v217h288v-68c0 -243 -29 -454 -87 -633z" />
    <glyph glyph-name="quotedblbase" unicode="&#x201e;" horiz-adv-x="762" 
d="M266 -348h-145c32 187 44 348 36 485h-92v216h288v-68c0 -243 -29 -454 -87 -633zM611 -348h-145c32 187 44 348 36 485h-92v216h288v-68c0 -243 -29 -454 -87 -633z" />
    <glyph glyph-name="dagger" unicode="&#x2020;" horiz-adv-x="1017" 
d="M635 1408h300v-239h-300v-300h-253v300h-300v239h300v300h253v-300z" />
    <glyph glyph-name="daggerdbl" unicode="&#x2021;" horiz-adv-x="1017" 
d="M635 1708v-300h300v-239h-300v-300h-253v300h-300v239h300v300h253zM382 696h253v-300h300v-239h-300v-300h-253v300h-300v239h300v300z" />
    <glyph glyph-name="bullet" unicode="&#x2022;" horiz-adv-x="713" 
d="M524 617c-47 -46 -102 -69 -167 -69s-121 23 -168 69s-70 102 -70 168s23 122 70 168s103 69 168 69s120 -23 167 -69s70 -102 70 -168s-23 -122 -70 -168z" />
    <glyph glyph-name="ellipsis" unicode="&#x2026;" horiz-adv-x="1256" 
d="M191 -24c-37 0 -69 13 -96 40s-40 59 -40 97c0 37 13 68 40 95c27 26 59 39 96 39c39 0 71 -13 98 -40s40 -58 40 -94c0 -37 -13 -69 -40 -96c-27 -28 -59 -41 -98 -41zM628 -24c-37 0 -69 13 -96 40s-40 59 -40 97c0 37 13 68 40 95c27 26 59 39 96 39
c39 0 71 -13 98 -40s40 -58 40 -94c0 -37 -13 -69 -40 -96c-27 -28 -59 -41 -98 -41zM1065 -24c-37 0 -69 13 -96 40s-41 59 -41 97c0 37 14 68 41 95c27 26 59 39 96 39c39 0 71 -13 98 -40s40 -58 40 -94c0 -37 -13 -69 -40 -96c-27 -28 -59 -41 -98 -41z" />
    <glyph glyph-name="perthousand" unicode="&#x2030;" horiz-adv-x="2536" 
d="M149 1517c55 50 134 75 237 75c102 0 181 -25 236 -75s83 -134 83 -252v-318c0 -118 -28 -202 -83 -253c-56 -51 -135 -76 -236 -76c-103 0 -182 25 -237 76c-56 51 -84 135 -84 253v318c0 118 28 202 84 252zM684 0h-239l664 1570h239zM471 937v336
c0 72 -28 108 -85 108s-86 -36 -86 -108v-336c0 -72 29 -108 86 -108s85 36 85 108zM1646 53c-55 -50 -134 -75 -236 -75c-103 0 -182 25 -237 75c-56 50 -84 134 -84 252v318c0 118 28 202 84 253c55 51 134 76 237 76c101 0 180 -25 236 -76c55 -51 83 -135 83 -253v-318
c0 -118 -28 -202 -83 -252zM2388 53c-56 -50 -135 -75 -237 -75c-103 0 -182 25 -237 75s-83 134 -83 252v318c0 118 28 202 84 253s134 76 235 76c103 0 182 -25 238 -76c55 -51 83 -135 83 -253v-318c0 -118 -28 -202 -83 -252zM1324 633v-336c0 -72 29 -108 86 -108
s85 36 85 108v336c0 72 -28 108 -85 108s-86 -36 -86 -108zM2065 633v-336c0 -72 29 -108 86 -108s85 36 85 108v336c0 72 -28 108 -85 108s-86 -36 -86 -108z" />
    <glyph glyph-name="guilsinglleft" unicode="&#x2039;" horiz-adv-x="771" 
d="M348 717l331 -471h-256l-331 471l331 471h256z" />
    <glyph glyph-name="guilsinglright" unicode="&#x203a;" horiz-adv-x="771" 
d="M348 246h-256l331 471l-331 471h256l331 -471z" />
    <glyph glyph-name="Euro" unicode="&#x20ac;" horiz-adv-x="897" 
d="M833 1270v-244h-251v242c0 71 -28 106 -85 106s-86 -35 -86 -106v-355h280v-80h-280v-99h280v-79h-280v-356c0 -71 29 -106 86 -106s85 35 85 106v247h251v-249c0 -211 -112 -316 -336 -316c-225 0 -337 105 -337 316v358h-95v79h95v99h-95v80h95v357
c0 211 112 316 337 315c107 0 189 -24 248 -72c59 -49 88 -130 88 -243z" />
    <glyph glyph-name="uni2116" unicode="&#x2116;" horiz-adv-x="1559" 
d="M992 1511c47 47 119 71 216 71s169 -23 216 -70s71 -126 71 -239v-392c0 -223 -94 -308 -287 -308c-98 0 -170 23 -217 70s-71 126 -71 238v392c0 111 24 191 72 238zM300 0h-235v1570h331l181 -1160h17l-7 187v973h236v-1570h-318l-194 1161h-17l6 -188v-973zM1273 889
v384c0 73 -21 97 -65 97c-45 0 -66 -22 -66 -97v-384c0 -75 21 -97 66 -97c43 0 65 32 65 97zM1495 0h-575v225h575v-225z" />
    <glyph glyph-name="trademark" unicode="&#x2122;" horiz-adv-x="609" 
d="M51 1570h185v-54h-62v-292h-61v292h-62v54zM420 1278l31 292h107v-346h-58v286h-10l-33 -286h-83l-33 286h-10v-286h-60v346h108l31 -292h10z" />
    <glyph glyph-name="partialdiff" unicode="&#x2202;" horiz-adv-x="800" 
d="M399 -15c-216 0 -334 89 -334 314v367c0 108 25 185 76 230s114 67 190 67c67 0 119 -21 154 -64l1 381c0 71 -28 106 -85 106s-85 -35 -85 -106v-217h-244v219c0 225 116 314 329 314c107 0 189 -24 248 -72c58 -49 87 -129 87 -242v-983c0 -113 -29 -193 -88 -241
c-59 -49 -142 -73 -249 -73zM399 196c58 0 87 35 87 106v341c0 71 -29 106 -87 106c-57 0 -85 -35 -85 -106v-341c0 -71 28 -106 85 -106z" />
    <glyph glyph-name="product" unicode="&#x220f;" horiz-adv-x="831" 
d="M65 1570h701v-1570h-252v1345h-197v-1345h-252v1570z" />
    <glyph glyph-name="summation" unicode="&#x2211;" horiz-adv-x="704" 
d="M640 0h-575v225l300 545l-300 575v225h575v-225h-312l288 -557v-37l-288 -526h312v-225z" />
    <glyph glyph-name="minus" unicode="&#x2212;" horiz-adv-x="960" 
d="M896 666h-831v239h831v-239z" />
    <glyph glyph-name="radical" unicode="&#x221a;" horiz-adv-x="914" 
d="M485 227l141 1343h244l-182 -1570h-434l-78 688h-132v225h340l75 -686h26z" />
    <glyph glyph-name="infinity" unicode="&#x221e;" horiz-adv-x="1392" 
d="M1017 1051c183 0 278 -128 278 -332c0 -209 -95 -337 -278 -337c-67 0 -125 18 -173 55c-49 37 -98 91 -148 164c-50 -73 -99 -127 -147 -164c-49 -37 -106 -55 -172 -55c-184 0 -280 126 -280 337c0 205 99 332 280 332c66 0 123 -18 172 -54c48 -37 97 -91 147 -162
c50 72 99 126 148 162c48 36 106 54 173 54zM399 544c37 0 70 13 98 38s67 71 116 137c-49 64 -87 108 -115 133s-61 37 -99 37c-91 0 -133 -69 -133 -170c0 -117 44 -175 133 -175zM993 544c89 0 133 58 133 175c0 103 -41 170 -133 170c-37 0 -70 -12 -98 -37
s-66 -70 -115 -133c49 -66 87 -112 115 -137s61 -38 98 -38z" />
    <glyph glyph-name="integral" unicode="&#x222b;" horiz-adv-x="1227" 
d="M828 1582c107 0 190 -24 249 -72c59 -49 89 -130 89 -244v-225h-253v224c0 71 -28 106 -85 106c-57 -1 -86 -36 -86 -106v-965c0 -211 -112 -316 -336 -316c-224 1 -336 106 -336 316v231h251v-229c0 -71 29 -106 86 -106s85 35 85 106v964c0 211 112 316 336 316z" />
    <glyph glyph-name="approxequal" unicode="&#x2248;" horiz-adv-x="774" 
d="M521 799c-68 0 -122 30 -146 59c-24 28 -62 58 -105 58c-51 0 -86 -29 -87 -80h-113c-3 145 68 215 191 215c71 0 124 -30 148 -58c24 -29 61 -59 105 -59c51 0 84 29 87 81h112c2 -144 -62 -216 -192 -216zM521 418c-68 0 -122 31 -146 59s-62 59 -105 59
c-51 0 -86 -31 -87 -80h-113c-3 145 68 215 191 215c71 0 124 -31 148 -59s61 -59 105 -59c51 0 84 30 87 82h112c2 -145 -62 -217 -192 -217z" />
    <glyph glyph-name="notequal" unicode="&#x2260;" horiz-adv-x="988" 
d="M910 1103v-239h-284l-18 -156h302v-239h-330l-54 -469h-232l51 469h-266v239h291l17 156h-308v239h334l51 467h244l-54 -467h256z" />
    <glyph glyph-name="lessequal" unicode="&#x2264;" horiz-adv-x="581" 
d="M517 655v-254l-447 394v277l447 394v-254l-287 -268v-21zM527 60h-466v239h466v-239z" />
    <glyph glyph-name="greaterequal" unicode="&#x2265;" horiz-adv-x="581" 
d="M512 795l-447 -394v254l287 268v21l-287 268v254l447 -394v-277zM521 299v-239h-466v239h466z" />
    <glyph glyph-name="lozenge" unicode="&#x25ca;" horiz-adv-x="800" 
d="M618 0h-434l-119 785l119 785h434l118 -785zM305 785l82 -558h26l84 558l-84 558h-26z" />
    <glyph glyph-name="G.aalt" 
d="M737 1270v-226h-249v224c0 71 -29 106 -87 106s-87 -35 -87 -106v-966c0 -71 31 -106 92 -106c63 0 94 35 94 106v340l5 37h-111v203h343v-882h-97l-20 131c-35 -105 -109 -146 -241 -146c-209 0 -314 105 -314 315v970c0 211 112 316 336 315c107 0 189 -24 248 -72
c59 -49 88 -130 88 -243z" />
    <glyph glyph-name="i.aalt" horiz-adv-x="380" 
d="M270 1710c-64 -67 -196 -18 -190 77c0 59 50 106 111 106s111 -47 111 -106c0 -31 -11 -56 -32 -77zM316 0h-251v1570h251v-1570z" />
    <glyph glyph-name="g.aalt" 
d="M737 1270v-226h-249v224c0 71 -29 106 -87 106s-87 -35 -87 -106v-966c0 -71 31 -106 92 -106c63 0 94 35 94 106v340l5 37h-111v203h343v-882h-97l-20 131c-35 -105 -109 -146 -241 -146c-209 0 -314 105 -314 315v970c0 211 112 316 336 315c107 0 189 -24 248 -72
c59 -49 88 -130 88 -243z" />
    </font>
</defs>
</svg>
